Aliens vs. Predator 1 & 2 BDRip 1080p x264 Eng Hin Por Rus Spa

Added May 7 2010
Categorymisc
Seeds / Peers17 / 60 Refresh Leechers
Size12.98 GB
Hash334f515843ee2ad3d52cd20acbc9c1ecef689c25
Files
5.17 GB AVP Alien vs. Predator 2004 Unrated BDRip 1080p x264 Eng Cze Spa Hin Hun Por Rus Tha Tur multisub
497.49 MB AVP Alien vs. Predator 2004 Unrated BDRip 1080p x264 Eng Cze Spa Hin Hun Por Rus Tha Tur multisub
348.24 MB AVP Alien vs. Predator 2004 Unrated BDRip 1080p x264 Eng Cze Spa Hin Hun Por Rus Tha Tur multisub
348.24 MB AVP Alien vs. Predator 2004 Unrated BDRip 1080p x264 Eng Cze Spa Hin Hun Por Rus Tha Tur multisub
348.24 MB AVP Alien vs. Predator 2004 Unrated BDRip 1080p x264 Eng Cze Spa Hin Hun Por Rus Tha Tur multisub
348.24 MB AVP Alien vs. Predator 2004 Unrated BDRip 1080p x264 Eng Cze Spa Hin Hun Por Rus Tha Tur multisub
348.24 MB AVP Alien vs. Predator 2004 Unrated BDRip 1080p x264 Eng Cze Spa Hin Hun Por Rus Tha Tur multisub
348.24 MB AVP Alien vs. Predator 2004 Unrated BDRip 1080p x264 Eng Cze Spa Hin Hun Por Rus Tha Tur multisub
348.24 MB AVP Alien vs. Predator 2004 Unrated BDRip 1080p x264 Eng Cze Spa Hin Hun Por Rus Tha Tur multisub
174.12 MB AVP Alien vs. Predator 2004 Unrated BDRip 1080p x264 Eng Cze Spa Hin Hun Por Rus Tha Tur multisub
4.44 GB AVPR Aliens vs Predator - Requiem 2007 BRRip 1080p x264 Eng Hun multisub
300.41 MB AVPR Aliens vs Predator - Requiem 2007 BRRip 1080p x264 Eng Hun multisub
26.79 MB Sample AVP 2004.mkv
12.59 MB Sample AVPR 2007.mkv
47 Byte Torrent downloaded from Demonoid.com.txt
Trackers
http://tracker.thepiratebay.org/announce
udp://tracker.thepiratebay.org:80/announce
http://fr33dom.h33t.com:3310/announce
http://inferno.demonoid.com:3395/announce
http://tracker.edgebooster.com:6969/announce
http://11.rarbg.com:80/announce
http://tracker.harryy.us:80/announce
http://sombarato.org:6969/announce
http://tracker.publicbt.org:80/announce
http://tracker.istole.it:80/announce
http://10.rarbg.com:80/announce
http://tracker.token.ro:80/announce
http://tracker.token.ro/announce
http://www.h33t.com:3310/announce
http://pow7.com:80/announce
http://photodiode.mine.nu:6969/announce
http://photodiode.mine.nu:80/announce
http://tracker.torrentparty.com:80/announce
http://genesis.1337x.org:1337/announce
http://nemesis.1337x.org/announce
http://www.torrentsnipe.info:2701/announce
http://bt-dbfr.shonencenter.net:8000/announce
http://bt.btbbt.com:7272/announce
http://bw.tracker.bitwar.ru:3552/announce
http://deez-torrents.findhere.org:2710/announce
http://locustracker.findhere.org:2710/announce
http://paranoya.homelinux.org:6969/announce
http://torrentz.ofgods.com:2710/announce
http://torrentdealer.ath.cx:6969/announce
http://torrential.dontexist.org/announce.php
http://tracker.bitebbs.com:6969/announce
http://unme.findhere.org:2710/announce
http://www.torrent-downloads.to:2710/announce
http://www.torrentvideos.com:6969/announce
http://bt.romman.net:8080/announce
http://tk2.greedland.net/announce
http://alt.sextorrent.to:2710/announce
http://tracker.mightynova.com:4315/announce
http://tracker.speedtorrent.to:2710/announce
http://tracker.torrent.to:2710/announce
http://www.sumotracker.com/announce
http://genesis.1337x.org:1337/announce
http://nemesis.1337x.org/announce
udp://denis.stalker.h3q.com:6969/announce
http://denis.stalker.h3q.com:6969/announce
udp://tracker.openbittorrent.com:80/announce
http://tracker.openbittorrent.com/announce
Description
################################################################################

AVP Alien vs. Predator 2004 Unrated BDRip 1080p x264 Eng Cze Spa Hin Hun Por Rus Tha Tur multisub
http://www.imdb.com/title/tt0370263/



Format : Matroska
File size : 5.17 GiB
Duration : 1h 48mn
Overall bit rate : 6 810 Kbps

Video
Format/Info : AVC/Advanced Video Codec
Format profile : [email protected]
Format settings, CABAC : Yes
Format settings, ReFrames : 5 frames
Nominal bit rate : 6 144 Kbps
Width : 1 920 pixels
Height : 840 pixels
Frame rate : 23.976 fps
Stream size : 4.58 GiB (89%)
Writing library : x264 core 79


Audio ENGLISH (DEFAULT): AC-3, Constant, 640 Kbps, 6 channels

EXTERNAL AUDIO TRACKS ( AC3 6ch):
CZECH, DIRECTOR'S COMMENTARY(ENG, 2 ch), ESPANOL
HINDI, MAGYAR, PORTUGUESE, RUSSIAN, THAI, TURKISH

Subtitles: English, Arabic, Bulgarian, Chinese(3), Croatian, Czech, Estonian, Greek

Hebrew, Hindi, Hungarian, Icelandic, Indonesian, Korean + Dir Com, Latvian

Lithuanian, Philippines(Tagalog), Polish, Portuguese(Iberian+Brasil), Romanian

Russian, Serbian, Slovenian, Spanish(Castilian+LatinAmerican), Thai, Turkish

Sample: Yes


http://j.imagehost.org/0801/AVP_Alien_vs_Predator_2004.jpg


http://j.imagehost.org/0602/AVP_Alien_vs_Predator_2004.jpg



################################################################################

AVPR: Aliens vs Predator - Requiem (2007) BRRip 1080p x264 Eng Hun multisub
http://www.imdb.com/title/tt0758730/



Format : Matroska
File size : 4.44 GiB
Duration : 1h 34mn
Overall bit rate : 6 708 Kbps

Video
Format/Info : AVC/Advanced Video Codec
Format profile : [email protected]
Format settings, CABAC : Yes
Format settings, ReFrames : 5 frames
Nominal bit rate : 6 144 Kbps
Width : 1 920 pixels
Height : 800 pixels
Frame rate : 23.976 fps
Stream size : 3.93 GiB (88%)
Writing library : x264 core 79

Audio #1 English (default) : AC-3, Constant, 640 Kbps, 6 channels
Audio #2 Magyar(external): AC-3, Constant, 448 Kbps, 6 channels, 300 MB

Subtitles: English, Arabic, Bulgarian, Croatian, Czech, Danish, Dutch, Finnish

French, Hungarian, Indonesian, Italian, Macedonian, Polish, Portuguese+Brasil

Romanian, Russian, Serbian, Slovenian, Spanish

Sample: Yes


http://j.imagehost.org/0402/Aliens_vs_Predator_Requiem_2007.jpg


http://j.imagehost.org/0663/Aliens_vs_Predator_Requiem_2007.jpg



################################################################################
               Use MKVextractGUI to mux in the AC3 dub file.
################################################################################
All subs show the right characters (saved under the right Unicode ISO).
In the future if you find subs not showing the right characters do the following:

If the subs are muxed in mkv download & use MKVextractGUI to extract(demux) the

subtitles from mkv, and mkvmerge GUI to mux back the edited/repaired sub in the mkv.

Download "Notepad++" (free): http://sourceforge.net/projects/notepad-plus/

The sub you demuxed from mkv: Open and save as...ANSI !(Important!)

Right click on the sub/Open with nppIExplorerShell.exe (Notepad++ exe)/click

Encoding(upper part menu)/Character sets and chose the language ISO.

Click again on Encoding/then click on Convert to UTF-8 or Unicode Big

Indian/save as...srt

You're done with the encoding, now you can mux it back in the mkv with mkvmerge

GUI, select the language & mux.

################################################################################
Locations no locations

Last

FILE SIZE SEEDS PEERS ADDED
21EroticAnal Tia Malkova Anticipated Return 720p HEVC x265 - misc Verified 144.07 MB 12 33 1 hour
AllFineGirls Kimberley Face To Face 720p HEVC x265 - misc Verified 113.06 MB 9 15 1 hour
DaughterSwap Ally Berry And Freya Von Doom 720p HEVC x265 - misc Verified 296.32 MB 17 36 1 hour
DigitalPlayground Adriana Chechik Nice To Meat You 720p HEVC x265 - misc Verified 282.07 MB 11 29 1 hour
GirlsDoPorn E386 18 Years Old 720p HEVC x265 - misc Verified 267.07 MB 19 32 1 hour
HeavyOnHotties E124 Eva Berger Oink Oink 720p HEVC x265 - misc Verified 358.32 MB 6 23 1 hour
KinkyFamily Shane Blair 720p HEVC x265 - misc Verified 194.32 MB 19 30 1 hour
Passion-HD Ashlee Mae My Little Stepsister 720p HEVC x265 - misc Verified 177.07 MB 21 31 1 hour
Tushy Jade Jantzen 720p HEVC x265 - misc Verified 226.57 MB 22 30 1 hour
WowPorn Nelya Lovers At Home 720p HEVC x265 - misc Verified 165.07 MB 29 38 1 hour
Shayla Some Easy Married Lovin (24.09.2016) 720p - misc Verified 915.57 MB 25 60 1 hour
Alex Blake Eighteen Year Olds First Sextape (25.09.2016) 1080p - misc Verified 2.45 GB 25 127 1 hour
Mia Malkova Holiday Cheer (19.09.2016) 400p - misc Verified 82.25 MB 15 9 1 hour
Lets Get Fistical Physical And Loveable (23.09.2016) 1080p - misc Verified 1.18 GB 18 46 1 hour
Mia Malkova Holiday Cheer (19.09.2016) 1080p - misc Verified 499.32 MB 22 26 1 hour
Keira (25.09.2016) 1080p - misc Verified 139.32 MB 21 13 2 hours
Cindy Shine Solo 4 (24.09.2016) 720p - misc Verified 303.82 MB 17 18 2 hours
Penelope Mcdowd Solo 3 (24.09.2016) 720p - misc Verified 351.82 MB 8 7 2 hours
Kiki Sweet Solo 2 (24.09.2016) 720p - misc Verified 333.32 MB 14 8 2 hours
VIPArea.16.09.19.Mia.Malkova.Holiday.Cheer.XXX.1080p.MP4-KTR[N1C] - misc Verified 500.5 MB 10 5 2 hours