5.XXX Free Porno Erotika Movies Site Rip-Gold

Download Anonymous Download Torrent (1) Download Torrent (2)
Added February 23 2011
Categorymisc
Seeds / Peers0 / 1 Refresh Leechers
Size1.47 GB
Hashc3f0e241d35e807983b5e51222a6826be747e9cf
Files
1.46 GB 5 XXX Free Porno Erotika Movies DvDrIpp.rar
223 Byte Demonoid.nfo
68 Byte Torrent Downloaded from Demonoid.com.txt
62 Byte tracked_by_h33t_com.txt
Trackers
http://tracker.thepiratebay.org/announce
udp://tracker.thepiratebay.org:80/announce
udp://tracker.openbittorrent.com:80/announce
udp://tracker.publicbt.com:80/announce
http://tracker.publicbt.com/announce
http://tracker.publicbt.org/announce
http://exodus.desync.com:6969/announce
http://bt1.the9.com:6969/announce
http://nyaatorrents.info:3277/announce
Description
[pre]
      *********** ****    ****      ***      ******** *********** ****    *** **********
           *+*     +*+*+* *+*+*+   *+* *+*   *+*    *+*    *+*     *+*+*   *+* *+*        
           +*+     +*+ +*+*+ +*+  +*+   +*+  +*+           +*+     *+*+*+  +*+ +*+        
           +$+     +$+  +*+  +$+ +$++*++$++* *$*           +$+     +$+ +*+ +$+ +$++*++$  
           +$+     +$+       +$+ +$+     +$+ +$+   +$+$    +$+     +$+  +$+$+$ +$+        
           $+$     $+$       $+$ $+$     $+$ $+$    $+$    $+$     $+$   $+$+$ $+$        
       $$$$$$$$$$$ $$$       $$$ $$$     $$$  $$$$$$$$ $$$$$$$$$$$ $$$    $$$$ $$$$$$$$$$    
                                                



                           Another Fine Release Brought to you from - IMAGiNE                  
                                                

***********************************************************************************
                         18 Years Old   2011 TS XViD -
***********************************************************************************

Ripper ...........:IMAGiNE                                        
IMDB Rating.......:4.9/10                            
Video Codec.......:XVID                                            
Release Date......:16/02/11
Audio Codec.......:AC-3                                            
Theatre Date......:14/01/11
Audio Bitrate.....:256                                             Runtime...........:1h 42mn
Subtitles.........:NIL                                             Language..........:ENGLISH
Resolution........:688 x 384                                      


[color=yellow]DETAILS:[/color]

Video
ID                               : 0
Format                           : MPEG-4 Visual
Format profile                   : Advanced Simple@L5
Format settings, BVOP            : Yes
Format settings, QPel            : No
Format settings, GMC             : No warppoints
Format settings, Matrix          : Default (MPEG)
Muxing mode                      : Packed bitstream
Codec ID                         : XVID
Codec ID/Hint                    : XviD
Duration                         : 1h 42mn
Bit rate                         : 1 786 Kbps
Width                            : 688 pixels
Height                           : 384 pixels
Display aspect ratio             : 16:9
Frame rate                       : 25.000 fps
Color space                      : YUV
Chroma subsampling               : 4:2:0
Bit depth                        : 8 bits
Scan type                        : Progressive
Bits/(Pixel*Frame)               : 0.270
Stream size                      : 1.28 GiB (87%)
Writing library                  : XviD 61

Audio
ID                               : 1
Format                           : AC-3
Format/Info                      : Audio Coding 3
Mode extension                   : CM (complete main)
Codec ID                         : 2000
Duration                         : 1h 42mn
Bit rate mode                    : Constant
Bit rate                         : 256 Kbps
Channel(s)                       : 2 channels
Channel positions                : Front: L R
Sampling rate                    : 48.0 KHz
Bit depth                        : 16 bits
Stream size                      : 188 MiB (12%)
Alignment                        : Aligned on interleaves
Interleave, duration             : 40 ms (1.00 video frame)
Interleave, preload duration     : 512 ms







[color=yellow]SOURCES:[/color]

VIDEO: Jailbait... Thanks
AUDIO: Thanks matey...

[color=yellow]NOTES:[/color]

IMAGiNE bringing you another release..........The Dilemma 2011

Here we are with a nice encode of this one for you all. Now for the video we just made a script
containing white balance, rgb eq, sharpness, chroma, brightness, contrast ect. Not a great video, but watchable.
The video was missing in 2 spots for about 30-40 seconds each, but nothing is missed really. The audio
we got from a friend thanks bro... With the audio it was just a matter of syncing it to the video.

Enjoy ;)

[color=yellow]SCREENS:[/color]


[color=yellow]GREETS:[/color]

FLAWL3SS,ViSiON,FUSiON,Rx,SecretMyth,BirdFlu,ELEKTRI4KA,SERENiTY and Autotron
And to all the other p2p grps past and present


[COLOR=RED]Looking for these,syncers,cammers,silver supplier,Audio.....Have anything to offer????......
Contact us [email protected][/COLOR][/pre]
Locations no locations

Last

FILE SIZE SEEDS PEERS ADDED
What on Earth S02E03 480p 225mb hdtv x264-][ Lost City of the Kalahari ][ 10-Feb-2016 ] mp4 (aka S02E09 by some) - series Verified 225.32 MB 2 5 1 min
Dark Net S01E03 HDTV x264-BATV[rartv] - series Verified 184.57 MB 0 0 1 min
Bitten S03E01 720p HDTV HEVC x265-RMTeam [720P][HEVC] - series Verified 253.16 MB 0 4 1 min
Dark Net S01E03 HDTV x264-BATV[ettv] - series Verified 186.5 MB 1 0 6 min
Exposed 2016 720p WEB-DL 5.1 x264 Legenda Fixa BLUDV - movies Verified 1.04 GB 1 0 16 min
Olhos da Justiça 2016 1080p BluRay 5.1 x264 DUAL BLUDV - movies Verified 2.39 GB 1 1 16 min
Olhos da Justiça 2016 720p BluRay 5.1 x264 DUAL BLUDV - movies Verified 1.33 GB 0 0 16 min
Spotlight (2015) 720p BluRay DD5.1 x264 - Sky - movies Verified 1.16 GB 1 1 26 min
Hero 2015 720p WEBRip x264 Hindi AAC-ETRG - movies Verified 968.3 MB 1 3 31 min
Lion Of The Desert 1981 720p BluRay H264 AAC-RARBG - movies Verified 2.1 GB 1 3 36 min
White House Down 2013 720p BluRay H264 AAC-RARBG - movies Verified 1.59 GB 10 14 41 min
The Five-Year Engagement 2012 UNRATED 720p BluRay H264 AAC-RARBG - movies Verified 1.59 GB 9 15 41 min
The Campaign 2012 EXTENDED 720p BluRay H264 AAC-RARBG - movies Verified 1.16 GB 1 2 41 min
Kaboom 2010 720p BluRay H264 AAC-RARBG - movies Verified 1.05 GB 10 7 45 min
Bird People 2014 720p BRRip x264 French AAC-ETRG - movies Verified 1006.3 MB 1 3 45 min
Eliminators 1986 480p x264-mSD - movies Verified 652.57 MB 9 11 1 hour
Yummy Purses (set 1) - Gingersnap Boutique [Crochet Pattern].pdf (Request) - misc Verified 211.2 KB 14 1 1 hour
Monkey Girl - Lilleliis [Crochet Pattern].pdf - misc Verified 2.1 MB 11 3 1 hour
Hangin With My Peeps - Sue Hillis [Cross Stitch Chart].pdf - misc Verified 2.94 MB 10 1 1 hour
40 Breathtaking Nature HD Wallpapers 2560x1600 Px [Set 35] - misc Verified 104.33 MB 19 7 1 hour