Fuck Hard 18 - Ashlyn Rae (XXX)(iPod,PSP,Zune)

Added February 6 2011
Categorymisc
Seeds / Peers2 / 40 Refresh Leechers
Size165.29 MB
Hash369851bd4879bb817cb86658140bc751c503d0c0
Files
224.13 KB Ashlyn Rae Screen.jpg
164.99 MB Ashlyn Rae.m4v
Trackers
http://tracker.thepiratebay.org/announce
udp://tracker.thepiratebay.org:80/announce
udp://tracker.openbittorrent.com:80/announce
udp://tracker.publicbt.com:80/announce
http://tracker.publicbt.com/announce
http://exodus.1337x.org/announce
Description
Screenshot

http://84448b75.drstickyfingers.com

Video
ID                               : 1
Format                           : AVC
Format/Info                      : Advanced Video Codec
Format profile                   : [email protected]
Format settings, CABAC           : No
Format settings, ReFrames        : 2 frames
Codec ID                         : avc1
Codec ID/Info                    : Advanced Video Coding
Duration                         : 46mn 10s
Bit rate mode                    : Variable
Bit rate                         : 400 Kbps
Width                            : 480 pixels
Height                           : 272 pixels
Display aspect ratio             : 16:9
Frame rate mode                  : Variable
Frame rate                       : 23.976 fps
Minimum frame rate               : 23.974 fps
Maximum frame rate               : 23.981 fps
Color space                      : YUV
Chroma subsampling               : 4:2:0
Bit depth                        : 8 bits
Scan type                        : Progressive
Bits/(Pixel*Frame)               : 0.128
Stream size                      : 132 MiB (80%)
Writing library                  : x264 core 112

Audio
ID                               : 2
Format                           : AAC
Format/Info                      : Advanced Audio Codec
Format profile                   : LC
Codec ID                         : 40
Duration                         : 46mn 11s
Bit rate mode                    : Variable
Bit rate                         : 96.0 Kbps
Maximum bit rate                 : 109 Kbps
Channel(s)                       : 2 channels
Channel positions                : Front: L R
Sampling rate                    : 48.0 KHz
Compression mode                 : Lossy
Stream size                      : 31.7 MiB (19%)
Language                         : English

Screenshot

http://84448b75.drstickyfingers.com

Locations no locations

Last

FILE SIZE SEEDS PEERS ADDED
[IDIF]One_Outs_19-21 - anime Verified 548.3 MB 3 2 7 sec
[Sick-Fansubs] Digimon Adventure Tri - Kokuhaku [720p] - anime Verified 1.95 GB 8 6 5 min
[DeadFish] Masou Gakuen HxH - 12v3 [720p][AAC].mp4 - anime Verified 375.32 MB 23 10 10 min
[AnimeRG] Naruto Shippuuden - 476 [x265] [Multi-Sub] [720p] [pseudo] - anime Verified 106.5 MB 14 4 1 hour
[JDrama] Kenja no Ai Ep01-Ep04 End (848x480 x264) - anime Verified 1.67 GB 12 29 1 hour
Fate/Stay Night – Heaven’s Feel 第01-03巻 - anime Verified 53.21 MB 170 32 1 hour
漫画アクション 2016年19号 [Manga Action 2016-19] - anime Verified 99.66 MB 0 164 1 hour
漫画アクション 2016年18号 [Manga Action 2016-18] - anime Verified 107.66 MB 50 9 1 hour
Zemana AntiLogger 2.50.204.83 Multilingual + Crack [OS4World] - software Verified 19.02 MB 12 5 1 hour
Zemana AntiMalware Premium 2.50.2.83 Multilingual + Crack [OS4World] - software Verified 19.02 MB 27 10 1 hour
Registry Reviver 4.8.0.22 + Patch - software Verified 147.2 KB 13 3 1 hour
Unloved-PLAZA - games Verified 1.5 GB 10 37 1 hour
Giant Machines 2017-CODEX - games Verified 3.61 GB 52 60 1 hour
Unaided 1939-CODEX - games Verified 2.63 GB 20 35 1 hour
Battlefleet Gothic Armada Tau Empire-SKIDROW - games Verified 6.34 GB 23 47 1 hour
Aliens vs. Predator (+ 2 DLC, MULTI8) [FitGirl Repack, Selective Download - from 4.1 GB] - games Verified 4.83 GB 25 118 1 hour
Quantum Break (Steam) - games Verified 41.78 GB 10 115 1 hour
Epica - The Holographic Principle (Limited Edition)320ak - music Verified 213.82 MB 59 13 1 hour
Them - Sweet Hollow 2016 320ak - music Verified 133.82 MB 15 5 2 hours
60's Garage - Compilations Vol 1-34 - music Verified 3.66 GB 19 9 2 hours