Fuck Hard 18 - Ashlyn Rae (XXX)(iPod,PSP,Zune)

Download Anonymous Download Torrent (1) Download Torrent (2)
Added February 6 2011
Categorymisc
Seeds / Peers2 / 40 Refresh Leechers
Size165.29 MB
Hash369851bd4879bb817cb86658140bc751c503d0c0
Files
224.13 KB Ashlyn Rae Screen.jpg
164.99 MB Ashlyn Rae.m4v
Trackers
http://tracker.thepiratebay.org/announce
udp://tracker.thepiratebay.org:80/announce
udp://tracker.openbittorrent.com:80/announce
udp://tracker.publicbt.com:80/announce
http://tracker.publicbt.com/announce
http://exodus.1337x.org/announce
Description
Screenshot

http://84448b75.drstickyfingers.com

Video
ID                               : 1
Format                           : AVC
Format/Info                      : Advanced Video Codec
Format profile                   : [email protected]
Format settings, CABAC           : No
Format settings, ReFrames        : 2 frames
Codec ID                         : avc1
Codec ID/Info                    : Advanced Video Coding
Duration                         : 46mn 10s
Bit rate mode                    : Variable
Bit rate                         : 400 Kbps
Width                            : 480 pixels
Height                           : 272 pixels
Display aspect ratio             : 16:9
Frame rate mode                  : Variable
Frame rate                       : 23.976 fps
Minimum frame rate               : 23.974 fps
Maximum frame rate               : 23.981 fps
Color space                      : YUV
Chroma subsampling               : 4:2:0
Bit depth                        : 8 bits
Scan type                        : Progressive
Bits/(Pixel*Frame)               : 0.128
Stream size                      : 132 MiB (80%)
Writing library                  : x264 core 112

Audio
ID                               : 2
Format                           : AAC
Format/Info                      : Advanced Audio Codec
Format profile                   : LC
Codec ID                         : 40
Duration                         : 46mn 11s
Bit rate mode                    : Variable
Bit rate                         : 96.0 Kbps
Maximum bit rate                 : 109 Kbps
Channel(s)                       : 2 channels
Channel positions                : Front: L R
Sampling rate                    : 48.0 KHz
Compression mode                 : Lossy
Stream size                      : 31.7 MiB (19%)
Language                         : English

Screenshot

http://84448b75.drstickyfingers.com

Locations no locations

Related

FILE SIZE SEEDS PEERS ADDED
BRAZZERS - Teens Like It Big - XXX - Horny Tiny Teen Needs Hard Fuck - Cassidy Klein m4v - misc Verified 131.07 MB 1 17 2 weeks
The Hot Teen Knows How To Fuck Hard On Cam Video - misc Verified 117.91 MB 1 9 2 weeks
Sassy Asian Deep Throats His Rock Hard Fuck Stick Video - misc Verified 185.82 MB 1 10 2 weeks
[WoodmanCastingX]Taylor Sands - Pretty Girl In Hard Fuck Session With Lots Of Guys - misc Verified 249.07 MB 18 13 3 weeks
Amateur - Fuck me POV and Shoot Your Cum All Over My Ass Hard [mpg] - misc Verified 150.63 MB 23 2 1 month
Epic Morning Fuck Hard - misc Verified 129.07 MB 1 10 1 month
Blonde Fuck Hard by a Big a Cock - misc Verified 88.91 MB 0 6 1 month
CLIPS4SALE - Madisin Lee - Mom Makes Stepson To Fuck Her Hard.wmv - misc Verified 127.79 MB 16 10 2 months
WoodmanCastingX - Lolly Gartner - Hard - Fuck party with 3 men ** NEW (January 30, 2016) NEW ** - misc Verified 240.32 MB 18 8 2 months
Killergram 16 01 09 Jasmine Jae Time To Fuck Hard XXX 720p MP4 KTR - misc Verified 734.82 MB 0 0 3 months
WeLikeToSuck 16 01 09 Milena Devi Fuck Me Hard XXX 1080p - misc Verified 1.41 GB 6 9 3 months
Russian Brunette Teen Girl Katrina Gets Hard Anal Fuck - misc Verified 320.46 MB 2 25 3 months
Hard Anal Fuck By Russian Teen Gloria - misc Verified 704.77 MB 0 28 3 months
Indonesian Porn Star Nyomi Arman Hard Fuck - misc Verified 139.57 MB 28 40 4 months
Wendy Moon - SheS Yearning For A Hard Fuck (2015) HD 720p - misc Verified 941.3 MB 11 14 4 months
Hard Cock Fuck Debuted In Latin Tight Pussy - misc Verified 259.14 MB 2 33 4 months
Hard Cock Fuck Debuted In Latin Tight Pussy - misc Verified 259.65 MB 32 24 4 months
Pussy from poland fuck hard - misc Verified 141.82 MB 1 22 4 months
LilyCade - Hard Fuck with Simone 11-03-14 - misc Verified 309.15 MB 2 9 4 months
Sexually Broken--Asian fuck doll Kalina Ryu shackled down blindfolded and fucked without mercy by hard cock! Kalina Ryu Maestro Jack Hammer High - misc Verified 851.3 MB 59 44 5 months