Fuck Hard 18 - Ashlyn Rae (XXX)(iPod,PSP,Zune)

Download Anonymous Download Torrent (1) Download Torrent (2)
Added February 6 2011
Categorymisc
Seeds / Peers2 / 40 Refresh Leechers
Size165.29 MB
Hash369851bd4879bb817cb86658140bc751c503d0c0
Files
224.13 KB Ashlyn Rae Screen.jpg
164.99 MB Ashlyn Rae.m4v
Trackers
http://tracker.thepiratebay.org/announce
udp://tracker.thepiratebay.org:80/announce
udp://tracker.openbittorrent.com:80/announce
udp://tracker.publicbt.com:80/announce
http://tracker.publicbt.com/announce
http://exodus.1337x.org/announce
Description
Screenshot

http://84448b75.drstickyfingers.com

Video
ID                               : 1
Format                           : AVC
Format/Info                      : Advanced Video Codec
Format profile                   : [email protected]
Format settings, CABAC           : No
Format settings, ReFrames        : 2 frames
Codec ID                         : avc1
Codec ID/Info                    : Advanced Video Coding
Duration                         : 46mn 10s
Bit rate mode                    : Variable
Bit rate                         : 400 Kbps
Width                            : 480 pixels
Height                           : 272 pixels
Display aspect ratio             : 16:9
Frame rate mode                  : Variable
Frame rate                       : 23.976 fps
Minimum frame rate               : 23.974 fps
Maximum frame rate               : 23.981 fps
Color space                      : YUV
Chroma subsampling               : 4:2:0
Bit depth                        : 8 bits
Scan type                        : Progressive
Bits/(Pixel*Frame)               : 0.128
Stream size                      : 132 MiB (80%)
Writing library                  : x264 core 112

Audio
ID                               : 2
Format                           : AAC
Format/Info                      : Advanced Audio Codec
Format profile                   : LC
Codec ID                         : 40
Duration                         : 46mn 11s
Bit rate mode                    : Variable
Bit rate                         : 96.0 Kbps
Maximum bit rate                 : 109 Kbps
Channel(s)                       : 2 channels
Channel positions                : Front: L R
Sampling rate                    : 48.0 KHz
Compression mode                 : Lossy
Stream size                      : 31.7 MiB (19%)
Language                         : English

Screenshot

http://84448b75.drstickyfingers.com

Locations no locations

Related

FILE SIZE SEEDS PEERS ADDED
Wild Teen Brunette Strong Fuck Hard On The Stairs - misc Verified 268.58 MB 0 0 4 months
[DailySexDose/21Sextury]Leony April - Fuck me hard!(NEW***05.10.2015) - misc Verified 565.57 MB 4 24 4 months
[Indian 18+] Horny Desi Indian Young Lovers Fuck Hard - misc Verified 186.07 MB 24 35 4 months
Wasted Penguinz & Rebourne - Fuck Yeah! [HWS013] [HARD with STYLE] [EDM RG] - music Verified 40.8 MB 6 1 5 months
Blonde Teen Blows It Hard During Strong Fuck - misc Verified 250.91 MB 1 5 5 months
Blonde Teen Blows It Hard During Strong Fuck - misc Verified 250.89 MB 6 3 5 months
ATKGirlfriends - Carmen Caliente - You came back to Singapore to fuck hard ** NEW (September 04, 2015) NEW ** - misc Verified 507.65 MB 5 23 5 months
Hard Anal Fuck By French Babe - misc Verified 136.41 MB 0 0 5 months
Perfect Anal Princess - Skinny Emo Teen With Pigtails Gets A Hard Anal Fuck And Creampie - misc Verified 192.32 MB 14 14 5 months
REAL PRETTY JAPAN AMATEUR CASTING FUCK SIRO--1709 (ALL THE GUYS LIKE TO JACK THIS KINDA SLUT SO HARD) - misc Verified 1.5 GB 1 0 5 months
RealGFsExposed Keisha Grey Keisha Is In Bad Need Of A Real Hard Fuck mp4 - misc Verified 433.32 MB 6 10 7 months
[Hard Fuck Tales] Abril [Crazy paintball game with hot DP](SD) [.mp4] - misc Verified 202.82 MB 23 28 7 months
[Hard Fuck Tales] Hardcore xxx video with vintage flavor [SD] [.avi] - misc Verified 802.82 MB 30 56 7 months
[Hard Fuck Tales] - Really rough and hard fuck for a bad-tempered hottie (720p) { The Rat Bastards } - misc Verified 1.04 GB 0 0 7 months
Sucking Hard Cock And Fuck Appeals German Teen - misc Verified 364.83 MB 6 15 7 months
Sucking Hard Cock And Fuck Appeals German Teen.avi - misc Verified 365.15 MB 39 36 7 months
[OldGoesYoung]Sasha - Sasha is so hot that its hard to believe shed let this old bastard fuck her anyway - misc Verified 620.32 MB 1 21 7 months
Jules Jordan Video Amia Miley Hard Body Fuck Doll Oiled Up Fucked Hard 720p HEVC x265 - misc Verified 336.57 MB 12 8 7 months
[TeensLikeItBig] Cassidy Klein (Horny Tiny Teen Needs Hard Fuck / 06.13.2015) - misc Verified 226.57 MB 794 363 8 months
TeensLikeItBig 15 06 13 Cassidy Klein Horny Tiny Teen Needs Hard Fuck 1080p MP4-KTR - misc Verified 2.44 GB 2 31 8 months