Big Macky -Julia Paes (XXX)(iPod,PSP,Zune)

Added February 14 2011
Categorymisc
Seeds / Peers1 / 6 Refresh Leechers
Size66.21 MB
Hashe6b473575949f6e28f130381da6a19ae24c3cdde
Files
65.88 MB Big Macky-Julia Paes.m4v
276.8 KB Screen.jpg
Trackers
http://tracker.thepiratebay.org/announce
udp://tracker.thepiratebay.org:80/announce
udp://tracker.openbittorrent.com:80/announce
udp://tracker.publicbt.com:80/announce
http://tracker.publicbt.com/announce
http://exodus.1337x.org/announce
Description
Screenshots:

http://9b81b444.tnabucks.com

Video
ID                               : 1
Format                           : AVC
Format/Info                      : Advanced Video Codec
Format profile                   : [email protected]
Format settings, CABAC           : No
Format settings, ReFrames        : 2 frames
Codec ID                         : avc1
Codec ID/Info                    : Advanced Video Coding
Duration                         : 22mn 16s
Bit rate mode                    : Variable
Bit rate                         : 350 Kbps
Width                            : 364 pixels
Height                           : 272 pixels
Display aspect ratio             : 4:3
Frame rate mode                  : Variable
Frame rate                       : 23.976 fps
Minimum frame rate               : 23.974 fps
Maximum frame rate               : 23.981 fps
Color space                      : YUV
Chroma subsampling               : 4:2:0
Bit depth                        : 8 bits
Scan type                        : Progressive
Bits/(Pixel*Frame)               : 0.147
Stream size                      : 55.7 MiB (85%)
Writing library                  : x264 core 112

Audio
ID                               : 2
Format                           : AAC
Format/Info                      : Advanced Audio Codec
Format profile                   : LC
Codec ID                         : 40
Duration                         : 22mn 16s
Bit rate mode                    : Variable
Bit rate                         : 60.3 Kbps
Maximum bit rate                 : 120 Kbps
Channel(s)                       : 2 channels
Channel positions                : Front: L R
Sampling rate                    : 44.1 KHz
Compression mode                 : Lossy
Stream size                      : 9.60 MiB (15%)
Language                         : Portuguese

More Torrents...

http://thepiratebay.org/user/punter21

Locations no locations

Last

FILE SIZE SEEDS PEERS ADDED
Tyketto - Reach (2016)320ak - music Verified 106.79 MB 48 12 44 sec
Green Day - Still Breathing [2016] ~320 Kbps~ [Mw Hits Music] - music Verified 8.79 MB 28 6 46 sec
The Aristocrats - The Aristocrats (2011) [FLAC] - music Verified 397.16 MB 20 13 47 sec
Nicolas Jaar - Nymphs (2016) - music Verified 153.07 MB 18 5 5 min
Bannada Neralu (2016) Kannada - MP3 - 320Kbps - CBR - [SRI] - music Verified 49.08 MB 3 4 5 min
Sweet - Action,The Ultimate Story - 2-CD (2015)-[FLAC]-[TFM] - music Verified 1.27 GB 21 58 5 min
Pet.Medics.S01E01 - E02.HDTV.x264-FiHTV - [SRIGGA] - series Verified 373.15 MB 28 33 10 min
Pet.Medics.S01E03 - E04.HDTV.x264-FiHTV - [SRIGGA] - series Verified 364.15 MB 20 17 10 min
Yes.Chef.S01E15.WEB.h264-ROFL - [SRIGGA] - series Verified 526.3 MB 7 5 10 min
Stephen.Colbert.2016.09.23.Bruce.Springsteen.HDTV.x264-SORNY[ettv] - series Verified 346.5 MB 142 88 15 min
The.Rap.Game.S02E10.Finale.Pt.2.HDTV.x264-CRiMSON - [SRIGGA] - series Verified 344.15 MB 39 15 15 min
Bring.It.S03E25.Stomp.Summer.Slam.Shocker.HDTV.x264-CRiMSON - [SRIGGA] - series Verified 460.15 MB 16 9 15 min
Carson.Daly.2016.09.22.Alan.Cumming.720p.HDTV.x264-CROOKS - [SRIGGA] - series Verified 514.3 MB 2 2 20 min
Rosewood.S02E01.REPACK.HDTV.x264-KILLERS[ettv] - series Verified 340.5 MB 90 58 20 min
Longmire.S05E04.720p.WEBRip.X264-DEFLATE[ettv] - series Verified 2.55 GB 52 72 20 min
Suits S01 Complete Season 1 BluRay 720p x265 HEVC [nate_666] - series Verified 2.49 GB 36 25 25 min
MotoGP.2016x14.Spain.Qualifying.BTSportHD.SD - series Verified 2.64 GB 8 125 25 min
MotoGP.2016x14.Spain.Qualifying.BTSportHD.1080p50 - series Verified 11.02 GB 18 66 25 min
MotoGP 2016 - Round 14 (Aragon) - Qualifying (FP4, Q1, Q2) - series Verified 3.66 GB 28 90 30 min
Josh.S02E01.Bed.and.Breakfast.720p.iP.WEBRip.AAC2.0.H264-RTN - [SRIGGA] - series Verified 273.15 MB 0 19 30 min