Big Macky -Julia Paes (XXX)(iPod,PSP,Zune)

Added February 14 2011
Categorymisc
Seeds / Peers1 / 6 Refresh Leechers
Size66.21 MB
Hashe6b473575949f6e28f130381da6a19ae24c3cdde
Files
65.88 MB Big Macky-Julia Paes.m4v
276.8 KB Screen.jpg
Trackers
http://tracker.thepiratebay.org/announce
udp://tracker.thepiratebay.org:80/announce
udp://tracker.openbittorrent.com:80/announce
udp://tracker.publicbt.com:80/announce
http://tracker.publicbt.com/announce
http://exodus.1337x.org/announce
Description
Screenshots:

http://9b81b444.tnabucks.com

Video
ID                               : 1
Format                           : AVC
Format/Info                      : Advanced Video Codec
Format profile                   : [email protected]
Format settings, CABAC           : No
Format settings, ReFrames        : 2 frames
Codec ID                         : avc1
Codec ID/Info                    : Advanced Video Coding
Duration                         : 22mn 16s
Bit rate mode                    : Variable
Bit rate                         : 350 Kbps
Width                            : 364 pixels
Height                           : 272 pixels
Display aspect ratio             : 4:3
Frame rate mode                  : Variable
Frame rate                       : 23.976 fps
Minimum frame rate               : 23.974 fps
Maximum frame rate               : 23.981 fps
Color space                      : YUV
Chroma subsampling               : 4:2:0
Bit depth                        : 8 bits
Scan type                        : Progressive
Bits/(Pixel*Frame)               : 0.147
Stream size                      : 55.7 MiB (85%)
Writing library                  : x264 core 112

Audio
ID                               : 2
Format                           : AAC
Format/Info                      : Advanced Audio Codec
Format profile                   : LC
Codec ID                         : 40
Duration                         : 22mn 16s
Bit rate mode                    : Variable
Bit rate                         : 60.3 Kbps
Maximum bit rate                 : 120 Kbps
Channel(s)                       : 2 channels
Channel positions                : Front: L R
Sampling rate                    : 44.1 KHz
Compression mode                 : Lossy
Stream size                      : 9.60 MiB (15%)
Language                         : Portuguese

More Torrents...

http://thepiratebay.org/user/punter21

Locations no locations

Last

FILE SIZE SEEDS PEERS ADDED
The Face Reader 2013 720p BluRay DD5.1 x264-CtrlHD[PRiME] - movies Verified 5.57 GB 1 20 1 sec
Captain.America.Civil.War.2016.BRRip.XviD.AC3.EVO. - movies Verified 1.72 GB 45 188 5 min
Captain.America.Civil.War.2016.BRRip.XviD.AC3-EVO[PRiME] - movies Verified 1.72 GB 73 150 5 min
Captain America: Civil War (2016) 720p BluRay 1.2GB - NBY - movies Verified 1.2 GB 102 274 5 min
Now.You.See.Me.2.2016.BluRay.720p.x264.DD5.1-HDChina[PRiME] - movies Verified 6.82 GB 10 75 10 min
Captain.America.Civil.War.2016.BRRip.XviD.AC3-EVO - movies Verified 1.72 GB 11 34 10 min
Captain.America.Civil.War.2016.720p.BRRip.X264.AC3-EVO - movies Verified 3.34 GB 47 417 10 min
Captain America: Civil War (2016) 720p BluRay HEVC x265-Pahe - movies Verified 730.3 MB 76 292 15 min
Honey 3: Dare to Dance *2016*[mini-HD.1080p.AC3.BDRip.x264-LEON 345] - movies Verified 3.99 GB 9 34 15 min
Captain.America.Civil.War.2016.BRRip.XviD.AC3-EVO - movies Verified 1.72 GB 50 176 15 min
Captain America Civil War 2016 720p BRRip x264 - LOKI - M2Tv - movies Verified 1.24 GB 27 108 19 min
Captain America: Civil War (2016) 720p BRRip 1.3GB - MkvCage - movies Verified 1.31 GB 169 1497 19 min
Christmas.Truce.2015.DVDRip.x264-GHOULS[PRiME] - movies Verified 579.2 MB 29 29 20 min
Captain.America.Civil.War.2016.BRRip.XViD.AC3-ETRG - movies Verified 1.51 GB 1296 5525 25 min
L'Arte del Sogno - BDmux 720p x264 - Ita Eng AC3 - Multisub - Orgazmo - movies Verified 3.92 GB 1 1 25 min
Animal.Park.Summer.Special.Series.1.2of5.720p.HDTV.x264.AAC .mp4 - movies Verified 1.06 GB 5 16 25 min
Animal.Park.Summer.Special.Series.1.1of5.720p.HDTV.x264.AAC .mp4 - movies Verified 1.04 GB 6 26 30 min
The.Ones.Below.2015.720p.BRRip.x264.AAC-ETRG - movies Verified 678.3 MB 3 11 30 min
Big.Bad.2016.HDRip.XviD.AC3.EVO. - movies Verified 1.4 GB 3 16 30 min
Big.Bad.2016.HDRip.XviD.AC3-EVO[PRiME] - movies Verified 1.41 GB 2 34 34 min