Big Macky -Julia Paes (XXX)(iPod,PSP,Zune)

Added February 14 2011
Categorymisc
Seeds / Peers1 / 6 Refresh Leechers
Size66.21 MB
Hashe6b473575949f6e28f130381da6a19ae24c3cdde
Files
65.88 MB Big Macky-Julia Paes.m4v
276.8 KB Screen.jpg
Trackers
http://tracker.thepiratebay.org/announce
udp://tracker.thepiratebay.org:80/announce
udp://tracker.openbittorrent.com:80/announce
udp://tracker.publicbt.com:80/announce
http://tracker.publicbt.com/announce
http://exodus.1337x.org/announce
Description
Screenshots:

http://9b81b444.tnabucks.com

Video
ID                               : 1
Format                           : AVC
Format/Info                      : Advanced Video Codec
Format profile                   : [email protected]
Format settings, CABAC           : No
Format settings, ReFrames        : 2 frames
Codec ID                         : avc1
Codec ID/Info                    : Advanced Video Coding
Duration                         : 22mn 16s
Bit rate mode                    : Variable
Bit rate                         : 350 Kbps
Width                            : 364 pixels
Height                           : 272 pixels
Display aspect ratio             : 4:3
Frame rate mode                  : Variable
Frame rate                       : 23.976 fps
Minimum frame rate               : 23.974 fps
Maximum frame rate               : 23.981 fps
Color space                      : YUV
Chroma subsampling               : 4:2:0
Bit depth                        : 8 bits
Scan type                        : Progressive
Bits/(Pixel*Frame)               : 0.147
Stream size                      : 55.7 MiB (85%)
Writing library                  : x264 core 112

Audio
ID                               : 2
Format                           : AAC
Format/Info                      : Advanced Audio Codec
Format profile                   : LC
Codec ID                         : 40
Duration                         : 22mn 16s
Bit rate mode                    : Variable
Bit rate                         : 60.3 Kbps
Maximum bit rate                 : 120 Kbps
Channel(s)                       : 2 channels
Channel positions                : Front: L R
Sampling rate                    : 44.1 KHz
Compression mode                 : Lossy
Stream size                      : 9.60 MiB (15%)
Language                         : Portuguese

More Torrents...

http://thepiratebay.org/user/punter21

Locations no locations

Last

FILE SIZE SEEDS PEERS ADDED
The Blacklist S01-03 Season 1-3 COMPLETE 720p BluRay x264-Pahe - series Verified 19.67 GB 7 26 1 min
The Out-Laws (Clan) S01 E03 - Hardcoded Eng Subs - Sno - series Verified 434.65 MB 36 18 1 min
Outcast S01E08 720p HDTV x265 HEVC 235MB - ShAaNiG - series Verified 235.32 MB 39 19 1 min
The Black Hole - Il Buco Nero (1979), [Mux 1080p - H264 - Ita Eng Ac3 5.1 - Sub Ita] HDTVMux - movies Verified 3.25 GB 69 49 6 min
Aerosmith - Rock for the Rising Sun (2013) 1080p MultiSub x264 BluRay - movies Verified 8.11 GB 2 41 6 min
Fluke 1995 1080i HDTV x264 DD 2 0-Grim - movies Verified 4.1 GB 0 2 6 min
The Chronicles of Narnia Trilogy (2005-2010) 720p BluRay HEVC x265-Pahe - movies Verified 2.1 GB 15 26 11 min
He.Got.Game.1998.720p.BluRay.x264-WiKi[PRiME] - movies Verified 8.29 GB 2 11 11 min
Tallulah.2016.HDRip.XviD.AC3-EVO - movies Verified 1.4 GB 11 36 11 min
Jason Bourne (2016) English 700MB Cam x264 AAC - Downloadhub - movies Verified 705.32 MB 332 582 16 min
Arachnicide.2016.HDRip.XviD.AC3-EVO - movies Verified 1.39 GB 20 56 16 min
The.Bet.2016.HDRip.XviD.AC3-EVO - movies Verified 1.4 GB 43 70 16 min
Dishoom (2016) 720p DVDSCR 950MB - NBY - movies Verified 951.3 MB 1081 3167 21 min
From Beyond The Grave - Peter Cushing Horror 1974 Eng Subs [H264-mp4] - movies Verified 1.38 GB 3 37 21 min
Haunter 2013 X265.[PRiME] - movies Verified 2.11 GB 2 20 26 min
BBC.Secrets.of.Bones.1of3.720p.WEB-DL.x264.AAC Forum.mkv - movies Verified 1004.82 MB 29 33 26 min
Employee.Of.The.Month.2006.1080p.BluRay.DTS.x264-ETRG - movies Verified 5.22 GB 3 140 26 min
Eye.In.The.Sky.2015.1080p.BluRay.DTS.x264-ETRG - movies Verified 5.16 GB 13 264 31 min
Love Me Tender 1956 1080p BluRay x264 DTS-FGT - movies Verified 5.7 GB 1 8 31 min
Hercules.1997.1080p.BluRay.DTS.x264-ETRG - movies Verified 4.42 GB 10 156 31 min