Big Macky -Julia Paes (XXX)(iPod,PSP,Zune)

Download Anonymous Download Torrent (1) Download Torrent (2)
Added February 14 2011
Categorymisc
Seeds / Peers1 / 6 Refresh Leechers
Size66.21 MB
Hashe6b473575949f6e28f130381da6a19ae24c3cdde
Files
65.88 MB Big Macky-Julia Paes.m4v
276.8 KB Screen.jpg
Trackers
http://tracker.thepiratebay.org/announce
udp://tracker.thepiratebay.org:80/announce
udp://tracker.openbittorrent.com:80/announce
udp://tracker.publicbt.com:80/announce
http://tracker.publicbt.com/announce
http://exodus.1337x.org/announce
Description
Screenshots:

http://9b81b444.tnabucks.com

Video
ID                               : 1
Format                           : AVC
Format/Info                      : Advanced Video Codec
Format profile                   : [email protected]
Format settings, CABAC           : No
Format settings, ReFrames        : 2 frames
Codec ID                         : avc1
Codec ID/Info                    : Advanced Video Coding
Duration                         : 22mn 16s
Bit rate mode                    : Variable
Bit rate                         : 350 Kbps
Width                            : 364 pixels
Height                           : 272 pixels
Display aspect ratio             : 4:3
Frame rate mode                  : Variable
Frame rate                       : 23.976 fps
Minimum frame rate               : 23.974 fps
Maximum frame rate               : 23.981 fps
Color space                      : YUV
Chroma subsampling               : 4:2:0
Bit depth                        : 8 bits
Scan type                        : Progressive
Bits/(Pixel*Frame)               : 0.147
Stream size                      : 55.7 MiB (85%)
Writing library                  : x264 core 112

Audio
ID                               : 2
Format                           : AAC
Format/Info                      : Advanced Audio Codec
Format profile                   : LC
Codec ID                         : 40
Duration                         : 22mn 16s
Bit rate mode                    : Variable
Bit rate                         : 60.3 Kbps
Maximum bit rate                 : 120 Kbps
Channel(s)                       : 2 channels
Channel positions                : Front: L R
Sampling rate                    : 44.1 KHz
Compression mode                 : Lossy
Stream size                      : 9.60 MiB (15%)
Language                         : Portuguese

More Torrents...

http://thepiratebay.org/user/punter21

Locations no locations

Last

FILE SIZE SEEDS PEERS ADDED
Bones S01E18 INTERNAL 720p HDTV x264-aAF[rartv] - series Verified 1.13 GB 11 3 6 min
Dr Ken S01E14 Daves Valentine 720p WEB-DL DD5 1 H264-NTb[rartv] - series Verified 667.32 MB 9 9 6 min
Dr Ken S01E13 D K and the Dishwasher 720p WEB-DL DD5 1 H264-NTb[rartv] - series Verified 673.32 MB 12 13 11 min
Dr Ken S01E13 D K and the Dishwasher 1080p WEB-DL DD5 1 H264-NTb[rartv] - series Verified 857.57 MB 0 1 11 min
Dr Ken S01E14 Daves Valentine 1080p WEB-DL DD5 1 H264-NTb[rartv] - series Verified 828.82 MB 20 13 16 min
Bones S01E19 720p HDTV x264-aAF[rartv] - series Verified 1.06 GB 32 47 21 min
Web of Lies S03E03 The Sick Boy 720p HDTV x264-W4F - series Verified 795.15 MB 2 3 21 min
Bones S01E20 720p HDTV x264-aAF[rartv] - series Verified 930.57 MB 13 49 21 min
Dr Ken S01E13 WEB-DL x264-RARBG - series Verified 169.25 MB 16 4 26 min
Dr Ken S01E14 WEB-DL x264-RARBG - series Verified 165.25 MB 16 6 26 min
Babylon 5 S02E20 The Long, Twilight Struggle DVDRip 6ch-Multi-Audio+Subs x265 10bit [S-Less] - series Verified 311.15 MB 0 1 31 min
BBC Six Nations Rugby 2016 02 06 Scotland v England 1080i h264-NX ts - series Verified 9.11 GB 1 7 36 min
Cidadão Kane 1941 BluRay 720p Dual Áudio - movies Verified 914.3 MB 1 2 41 min
Cidadão Kane 1941 BluRay 1080p Dual Áudio - movies Verified 1.66 GB 0 2 46 min
Home Invasion 2016 720p WEB-DL 656 MB iExTV.mp4 - movies Verified 657.3 MB 1 1 46 min
The Secret World of Arrietty 2010 1080p BluRay x264-iNFAMOUS - movies Verified 6.56 GB 20 31 56 min
Here Is Your Life 1966 1080p Criterion Bluray small x265 LION - movies Verified 1.84 GB 1 0 1 hour
Criminal Activities 2015 720p BluRay x264-NeZu - movies Verified 774.3 MB 1 2 1 hour
15 Minutos 2001 1080p BluRay 5.1 x264 DUAL BLUDV - movies Verified 2.08 GB 1 1 1 hour
DLoTS01E0390secClip1080pHEVCD0ct0rLew - misc Verified 33.63 MB 2 0 2 hours