Big Macky -Julia Paes (XXX)(iPod,PSP,Zune)

Download Anonymous Download Torrent (1) Download Torrent (2)
Added February 14 2011
Categorymisc
Seeds / Peers1 / 6 Refresh Leechers
Size66.21 MB
Hashe6b473575949f6e28f130381da6a19ae24c3cdde
Files
65.88 MB Big Macky-Julia Paes.m4v
276.8 KB Screen.jpg
Trackers
http://tracker.thepiratebay.org/announce
udp://tracker.thepiratebay.org:80/announce
udp://tracker.openbittorrent.com:80/announce
udp://tracker.publicbt.com:80/announce
http://tracker.publicbt.com/announce
http://exodus.1337x.org/announce
Description
Screenshots:

http://9b81b444.tnabucks.com

Video
ID                               : 1
Format                           : AVC
Format/Info                      : Advanced Video Codec
Format profile                   : [email protected]
Format settings, CABAC           : No
Format settings, ReFrames        : 2 frames
Codec ID                         : avc1
Codec ID/Info                    : Advanced Video Coding
Duration                         : 22mn 16s
Bit rate mode                    : Variable
Bit rate                         : 350 Kbps
Width                            : 364 pixels
Height                           : 272 pixels
Display aspect ratio             : 4:3
Frame rate mode                  : Variable
Frame rate                       : 23.976 fps
Minimum frame rate               : 23.974 fps
Maximum frame rate               : 23.981 fps
Color space                      : YUV
Chroma subsampling               : 4:2:0
Bit depth                        : 8 bits
Scan type                        : Progressive
Bits/(Pixel*Frame)               : 0.147
Stream size                      : 55.7 MiB (85%)
Writing library                  : x264 core 112

Audio
ID                               : 2
Format                           : AAC
Format/Info                      : Advanced Audio Codec
Format profile                   : LC
Codec ID                         : 40
Duration                         : 22mn 16s
Bit rate mode                    : Variable
Bit rate                         : 60.3 Kbps
Maximum bit rate                 : 120 Kbps
Channel(s)                       : 2 channels
Channel positions                : Front: L R
Sampling rate                    : 44.1 KHz
Compression mode                 : Lossy
Stream size                      : 9.60 MiB (15%)
Language                         : Portuguese

More Torrents...

http://thepiratebay.org/user/punter21

Locations no locations

Last

FILE SIZE SEEDS PEERS ADDED
DMOW-068 - misc Verified 1.48 GB 1 4 26 sec
NetVideoGirls 16 04 29 Rose XXX MP4-KTR - misc Verified 789.3 MB 13 15 28 sec
Fragile Soft Machines - games Verified 31.01 MB 1 0 36 sec
Prison Architect - Update 6 {6c} (PC/Windows) [webcam951] - games Verified 330.82 MB 1 3 37 sec
Prison Architect - Update 6 {6c} (Linux) [webcam951] - games Verified 327.57 MB 2 1 39 sec
wet tattoo asian dildo orgasm webcam - misc Verified 105.66 MB 4 0 5 min
Prison Architect - Update 6 {6c} (Mac OS X) [webcam951] - games Verified 322.82 MB 1 4 5 min
Haunted Hotel 11: The Axiom Butcher CE (2015) PC [FINAL] - games Verified 1.32 GB 6 5 10 min
As I Am - Closer (2016) [EDM, House, Deep House, Bass House] [Axtone Records] *Zoto* [EDM RG] - music Verified 74.31 MB 6 3 10 min
James Cotton - 2013 - Cotton Mouth Man [[email protected]] - music Verified 150.91 MB 5 6 10 min
ClubTug 16 04 26 Horny Latina Loves Jerking You Off XXX 720p MP4 YAPG - misc Verified 162.82 MB 17 9 15 min
Transsexual Gangbangers 18 XXX DVDRip [.mp4] - misc Verified 1.06 GB 34 67 15 min
Donald Byrd - Black Byrd (2013) [24-192 HD FLAC] - music Verified 1.47 GB 1 135 15 min
Beardfish - +4626 - Comfortzone (2015) [Flac] - music Verified 901.07 MB 10 8 15 min
Photodromm 16 04 29 Sophie Mood Swing 2 XXX 720p MP4 YAPG - misc Verified 156.07 MB 5 10 20 min
Wet With Married Woman Woman Doctor Molester Train 1 - misc Verified 109.16 MB 8 0 20 min
Grateful Dead - Daves Picks Volume 18 Orpheum Theatre 7-17-76 (2016) FLAC Beolab1700 - music Verified 1.39 GB 78 17 20 min
BTS - The Most Beautiful Moment in Life: Young Forever [Special Album] - music Verified 207.82 MB 9 3 20 min
Masterchef australia s08e01 hdtv x264 bf1 mkv - series Verified 880.15 MB 13 425 20 min
Fantasy Roleplay XXX DVDRip x264 XCiTE - misc Verified 1.19 GB 26 73 25 min