Big Macky -Julia Paes (XXX)(iPod,PSP,Zune)

Download Torrent Download Anonymous
Added February 14 2011
Categorymisc
Seeds / Peers1 / 6 Refresh Leechers
Size66.21 MB
Hashe6b473575949f6e28f130381da6a19ae24c3cdde
Files
65.88 MB Big Macky-Julia Paes.m4v
276.8 KB Screen.jpg
Trackers
http://tracker.thepiratebay.org/announce
udp://tracker.thepiratebay.org:80/announce
udp://tracker.openbittorrent.com:80/announce
udp://tracker.publicbt.com:80/announce
http://tracker.publicbt.com/announce
http://exodus.1337x.org/announce
Description
Screenshots:

http://9b81b444.tnabucks.com

Video
ID                               : 1
Format                           : AVC
Format/Info                      : Advanced Video Codec
Format profile                   : [email protected]
Format settings, CABAC           : No
Format settings, ReFrames        : 2 frames
Codec ID                         : avc1
Codec ID/Info                    : Advanced Video Coding
Duration                         : 22mn 16s
Bit rate mode                    : Variable
Bit rate                         : 350 Kbps
Width                            : 364 pixels
Height                           : 272 pixels
Display aspect ratio             : 4:3
Frame rate mode                  : Variable
Frame rate                       : 23.976 fps
Minimum frame rate               : 23.974 fps
Maximum frame rate               : 23.981 fps
Color space                      : YUV
Chroma subsampling               : 4:2:0
Bit depth                        : 8 bits
Scan type                        : Progressive
Bits/(Pixel*Frame)               : 0.147
Stream size                      : 55.7 MiB (85%)
Writing library                  : x264 core 112

Audio
ID                               : 2
Format                           : AAC
Format/Info                      : Advanced Audio Codec
Format profile                   : LC
Codec ID                         : 40
Duration                         : 22mn 16s
Bit rate mode                    : Variable
Bit rate                         : 60.3 Kbps
Maximum bit rate                 : 120 Kbps
Channel(s)                       : 2 channels
Channel positions                : Front: L R
Sampling rate                    : 44.1 KHz
Compression mode                 : Lossy
Stream size                      : 9.60 MiB (15%)
Language                         : Portuguese

More Torrents...

http://thepiratebay.org/user/punter21

Locations no locations

Last

FILE SIZE SEEDS PEERS ADDED
The Bold And The Beautiful - S29 Ep7342 - 2016-05-30 - series Verified 296.65 MB 1 27 22 sec
Upstart Crow S01E04 Love is Not Love 720p WEB h264-HEAT[rartv] - series Verified 502.82 MB 10 6 10 min
Barred For Life 2 2013 BDRip x264-OBiTS[VR56] - movies Verified 618.57 MB 12 8 20 min
Wanda Nevada 1979 1080p BluRay H264 AAC-RARBG - movies Verified 2.05 GB 27 15 20 min
The Antwerp Dolls 2015 HDRip AC3 x264-BDP - movies Verified 701.3 MB 11 8 20 min
Zootopia 2016 Complete (1080p Bluray x265 10bit AAC 7.1 Joy)[UTR] - movies Verified 1.72 GB 0 0 25 min
Never Surrender 2009 720p BluRay H264 AAC-RARBG - movies Verified 1 GB 10 11 30 min
John Mulaney The Comeback Kid 720p WEBRip x264-TheRival - movies Verified 923.3 MB 26 3 2 hours
RRRrrrr 2004 FRENCH 720p WEB-DL DD5 1 H264-FGT - movies Verified 2.97 GB 10 8 2 hours
Dads Army 2016 720p WEB-DL x264 DD5 1-iFT - movies Verified 2.74 GB 11 19 2 hours
Mountains.May.Depart.2015.720p.BluRay.x264-WiKi[VR56] - movies Verified 5.06 GB 12 20 2 hours
Alice Through the Looking Glass 2016 TC 720P X264 AAC English CHS Mp4B - movies Verified 2.37 GB 38 140 2 hours
The.Antwerp.Dolls.2015.HDRip.XviD.AC3-EVO - movies Verified 1.36 GB 36 40 2 hours
The.Antwerp.Dolls.2015.HDRip.XviD.AC3.EVO - movies Verified 1.36 GB 17 16 2 hours
Channo Kamli Yaar Di (2016) - 720p - DVD-Rip - Punjabi - x264 - AC3 - 5.1 - Mafiaking - M2Tv - movies Verified 992.3 MB 21 76 2 hours
The Antwerp Dolls 2015 HDRip XviD AC3-iFT - movies Verified 1.46 GB 10 26 2 hours
Alice Through the Looking Glass 2016 720P HDTC X264 AC3 TiTAN - movies Verified 2.48 GB 2 5 2 hours
Legends Of.The.Fall.1994.1080p.BluRay.x264-Japhson - movies Verified 10.96 GB 10 7 2 hours
An American Terror 2014 720 BluRay 600 MB - iExTV - movies Verified 601.3 MB 1 0 2 hours
The Angry Birds Movie [2016] [Latino][TS-HQ] YG - movies Verified 565.3 MB 1 0 2 hours