Massage Creep - Jennifer White (XXX)(iPod,PSP,Zune)

Download Anonymous Download Torrent (1) Download Torrent (2)
Added February 7 2011
Categorymisc
Seeds / Peers1 / 3 Refresh Leechers
Size186.82 MB
Hash85355a84e7445fb721198c74703a93102f16c626
Files
285.43 KB Jennifer White.jpg
186.43 MB Jennifer White.m4v
Trackers
http://tracker.thepiratebay.org/announce
udp://tracker.thepiratebay.org:80/announce
udp://tracker.openbittorrent.com:80/announce
udp://tracker.publicbt.com:80/announce
http://tracker.publicbt.com/announce
http://exodus.1337x.org/announce
Description
Screenshot

http://8ba9e974.poontown.net

Video
ID                               : 1
Format                           : AVC
Format/Info                      : Advanced Video Codec
Format profile                   : [email protected]
Format settings, CABAC           : No
Format settings, ReFrames        : 2 frames
Codec ID                         : avc1
Codec ID/Info                    : Advanced Video Coding
Duration                         : 56mn 55s
Bit rate mode                    : Variable
Bit rate                         : 400 Kbps
Width                            : 480 pixels
Height                           : 272 pixels
Display aspect ratio             : 16:9
Frame rate mode                  : Variable
Frame rate                       : 23.976 fps
Minimum frame rate               : 23.974 fps
Maximum frame rate               : 23.981 fps
Color space                      : YUV
Chroma subsampling               : 4:2:0
Bit depth                        : 8 bits
Scan type                        : Progressive
Bits/(Pixel*Frame)               : 0.128
Stream size                      : 163 MiB (87%)
Writing library                  : x264 core 112


Audio
ID                               : 2
Format                           : AAC
Format/Info                      : Advanced Audio Codec
Format profile                   : LC
Codec ID                         : 40
Duration                         : 56mn 55s
Bit rate mode                    : Variable
Bit rate                         : 54.5 Kbps
Maximum bit rate                 : 64.2 Kbps
Channel(s)                       : 2 channels
Channel positions                : Front: L R
Sampling rate                    : 44.1 KHz
Compression mode                 : Lossy
Stream size                      : 22.2 MiB (12%)
Language                         : English

Screenshot

http://8ba9e974.poontown.net


Locations no locations

Last

FILE SIZE SEEDS PEERS ADDED
The Big Bang Theory S09E15 The Valentino Submergence (1080p HDTV x265 HEVC 10bit AAC 5.1 Joy)[UTR] - series Verified 156.07 MB 72 33 5 min
Elementary S04E12 A View With a Room 1080p WEB-DL DD5 1 H264-DRACULA - series Verified 1.63 GB 0 0 10 min
NBA 2016 ASG (12 feb) BBVA Rising Star Challenge Practice 720p -Mr. Drax - series Verified 2.27 GB 1 0 15 min
Wolfblood S02E04 720p WEBRip HEVC x265-RMTeam [720P][HEVC] - series Verified 155.21 MB 0 0 16 min
The Vampire Diaries S07E11 WEB-DL x264-RARBG - series Verified 238.25 MB 15 17 20 min
The 100 S03E04 1080p WEB-DL 6CH HEVC x265-RMTeam [1080P][HEVC] - series Verified 566.32 MB 2 4 21 min
Bitten S03E01 1080p WEB-DL HEVC x265-RMTeam [1080P][HEVC] - series Verified 377.04 MB 0 2 25 min
Bones S01E22 720p HDTV HEVC x265-RMTeam [720P][HEVC] - series Verified 268.16 MB 17 2 25 min
Mayday (Air Crash Investigation) S04E08 - Fog Of War (Flight 21 Missing) HDTV 720p [BeavisMan] [ KAT ] - series Verified 1.33 GB 0 0 30 min
Little Big Master 2015 Chinese 720p BluRay 828 MB iExTV.mp4 - movies Verified 830.3 MB 9 4 35 min
Christmas Vacation 1989 x264 Bluray 1080p 2.0 High Quality - HDD - movies Verified 8.48 GB 8 0 36 min
Mastizaade [2016] Hindi HDRip x264 1CD 700MB MSUBS - movies Verified 706.3 MB 1 0 40 min
I tre volti della paura 1963 BDRip 720p Ita Sub Eng x265-NAHOM - movies Verified 1.32 GB 31 19 45 min
Hyena Road 2015 BluRay 1080p x264 DTS-HDMA 5 1-LTT - movies Verified 11.56 GB 9 4 50 min
Spotlight 2015 BluRay 1080p x264 DTS-HDMA 5 1-LTT - movies Verified 11.74 GB 9 34 50 min
Trumbo 2015 BluRay 1080p x264 DTS-HDMA 5 1-LTT - movies Verified 11.11 GB 23 6 50 min
The Art of Flight 2011 DOCU BRRip XviD MP3-RARBG - movies Verified 1.02 GB 8 2 55 min
Jil Jung Juk (2016) Tamil DVDScr x264 AAC - ZippyMovieZ - movies Verified 592.3 MB 1 1 55 min
Cabin Fever (2016) 720p WEB-DL Rip x264 - LOKI - M2Tv - movies Verified 985.3 MB 3 53 1 hour
Kaboom 2010 1080p BluRay H264 AAC-RARBG - movies Verified 1.65 GB 11 8 1 hour