Massage Creep - Jennifer White (XXX)(iPod,PSP,Zune)

Added February 7 2011
Categorymisc
Seeds / Peers1 / 3 Refresh Leechers
Size186.82 MB
Hash85355a84e7445fb721198c74703a93102f16c626
Files
285.43 KB Jennifer White.jpg
186.43 MB Jennifer White.m4v
Trackers
http://tracker.thepiratebay.org/announce
udp://tracker.thepiratebay.org:80/announce
udp://tracker.openbittorrent.com:80/announce
udp://tracker.publicbt.com:80/announce
http://tracker.publicbt.com/announce
http://exodus.1337x.org/announce
Description
Screenshot

http://8ba9e974.poontown.net

Video
ID                               : 1
Format                           : AVC
Format/Info                      : Advanced Video Codec
Format profile                   : [email protected]
Format settings, CABAC           : No
Format settings, ReFrames        : 2 frames
Codec ID                         : avc1
Codec ID/Info                    : Advanced Video Coding
Duration                         : 56mn 55s
Bit rate mode                    : Variable
Bit rate                         : 400 Kbps
Width                            : 480 pixels
Height                           : 272 pixels
Display aspect ratio             : 16:9
Frame rate mode                  : Variable
Frame rate                       : 23.976 fps
Minimum frame rate               : 23.974 fps
Maximum frame rate               : 23.981 fps
Color space                      : YUV
Chroma subsampling               : 4:2:0
Bit depth                        : 8 bits
Scan type                        : Progressive
Bits/(Pixel*Frame)               : 0.128
Stream size                      : 163 MiB (87%)
Writing library                  : x264 core 112


Audio
ID                               : 2
Format                           : AAC
Format/Info                      : Advanced Audio Codec
Format profile                   : LC
Codec ID                         : 40
Duration                         : 56mn 55s
Bit rate mode                    : Variable
Bit rate                         : 54.5 Kbps
Maximum bit rate                 : 64.2 Kbps
Channel(s)                       : 2 channels
Channel positions                : Front: L R
Sampling rate                    : 44.1 KHz
Compression mode                 : Lossy
Stream size                      : 22.2 MiB (12%)
Language                         : English

Screenshot

http://8ba9e974.poontown.net


Locations no locations

Last

FILE SIZE SEEDS PEERS ADDED
NAO – For All We Know (2016){1337X}-Faddy665 - music Verified 80.54 MB 5 7 13 sec
(Trance) VA - VOCAL ANTHEMS IBIZA (2016) Mp3, 320 Kbps - music Verified 274.15 MB 5 2 16 sec
(Trance, Psy Trance) VA - PHARMACY PLUS - ANTHOLOGY VOL.1 (2016) MP3, 320 Kbps - music Verified 480.65 MB 8 4 17 sec
(Trance) VA - NOTHING BUT... TRANCE ANTHEMS VOL.1 (2016) Mp3, 320 Kbps - music Verified 400.15 MB 9 2 5 min
Canaan - Canaan (2016)320ak - music Verified 107.41 MB 15 6 5 min
Match.Game.2016.S01E05.HDTV.x264-W4F - [SRIGGA] - series Verified 422.65 MB 14 13 5 min
Love.and.Hip.Hop.Atlanta.S05E16.Final.Outcome.HDTV.x264-CRiMSON - [SRIGGA] - series Verified 338.15 MB 22 8 10 min
Forces.Of.Nature.With.Brian.Cox.S01E04.HDTV.x264-C4TV - [SRIGGA] - series Verified 390.65 MB 8 2 10 min
The.Block.NZ.S05E35.HDTV.x264-FiHTV[PRiME] - series Verified 291.2 MB 23 17 10 min
Neighbours.S32E129.PDTV.x264-CBFM[PRiME] - series Verified 211.2 MB 2 1 15 min
Neighbours.S32E128.PDTV.x264-CBFM[PRiME] - series Verified 211.2 MB 2 1 15 min
Neighbours.S32E127.PDTV.x264-CBFM[PRiME] - series Verified 227.2 MB 2 1 15 min
Neighbours.S32E126.PDTV.x264-CBFM[PRiME] - series Verified 211.2 MB 2 1 20 min
Odd Mom Out S02E06 720p HDTV HEVC x265-RMTeam [720P][HEVC - series Verified 148.04 MB 3 4 20 min
Nancy.Wake.Gestapos.Most.Wanted.2014.PDTV.x264-CBFM[PRiME] - series Verified 467.2 MB 12 12 20 min
Media.Watch.2016.07.25.PDTV.x264-CBFM[PRiME] - series Verified 115.2 MB 4 3 25 min
Media.Watch.2016.07.18.PDTV.x264-CBFM[PRiME] - series Verified 131.2 MB 1 6 25 min
Media.Watch.2016.07.11.PDTV.x264-CBFM[PRiME] - series Verified 131.2 MB 2 2 25 min
Outcast S01e07[Mux - 720p - H264 - Ita Ac3 Eng Aac - Sub Ita Eng]WEBMux By GiuseppeiCV Littlelinx - series Verified 1.56 GB 12 58 30 min
James.Corden.2016.07.25.Mila.Kunis.HDTV.x264-CROOKS[ettv] - series Verified 354.5 MB 37 39 30 min