Massage Creep - Jennifer White (XXX)(iPod,PSP,Zune)

Added February 7 2011
Categorymisc
Seeds / Peers1 / 3 Refresh Leechers
Size186.82 MB
Hash85355a84e7445fb721198c74703a93102f16c626
Files
285.43 KB Jennifer White.jpg
186.43 MB Jennifer White.m4v
Trackers
http://tracker.thepiratebay.org/announce
udp://tracker.thepiratebay.org:80/announce
udp://tracker.openbittorrent.com:80/announce
udp://tracker.publicbt.com:80/announce
http://tracker.publicbt.com/announce
http://exodus.1337x.org/announce
Description
Screenshot

http://8ba9e974.poontown.net

Video
ID                               : 1
Format                           : AVC
Format/Info                      : Advanced Video Codec
Format profile                   : [email protected]
Format settings, CABAC           : No
Format settings, ReFrames        : 2 frames
Codec ID                         : avc1
Codec ID/Info                    : Advanced Video Coding
Duration                         : 56mn 55s
Bit rate mode                    : Variable
Bit rate                         : 400 Kbps
Width                            : 480 pixels
Height                           : 272 pixels
Display aspect ratio             : 16:9
Frame rate mode                  : Variable
Frame rate                       : 23.976 fps
Minimum frame rate               : 23.974 fps
Maximum frame rate               : 23.981 fps
Color space                      : YUV
Chroma subsampling               : 4:2:0
Bit depth                        : 8 bits
Scan type                        : Progressive
Bits/(Pixel*Frame)               : 0.128
Stream size                      : 163 MiB (87%)
Writing library                  : x264 core 112


Audio
ID                               : 2
Format                           : AAC
Format/Info                      : Advanced Audio Codec
Format profile                   : LC
Codec ID                         : 40
Duration                         : 56mn 55s
Bit rate mode                    : Variable
Bit rate                         : 54.5 Kbps
Maximum bit rate                 : 64.2 Kbps
Channel(s)                       : 2 channels
Channel positions                : Front: L R
Sampling rate                    : 44.1 KHz
Compression mode                 : Lossy
Stream size                      : 22.2 MiB (12%)
Language                         : English

Screenshot

http://8ba9e974.poontown.net


Locations no locations

Last

FILE SIZE SEEDS PEERS ADDED
Anti-Porn v23.7.9.27 Final Incl Patch [Androgalaxy] - software Verified 5.7 MB 20 9 7 min
Michael Jackson - Farewell My Summer Love [First Press] - 1984, WavPack - music Verified 1.6 GB 9 20 7 min
BANKS - The Altar (2016) [MP3~320Kbps]~[Hunter] [FRG] - music Verified 103.41 MB 7 11 12 min
Yellowcard - Yellowcard (2016) [MP3~320Kbps]~[Hunter] [FRG] - music Verified 111.16 MB 1 0 12 min
2010 - Prince - 20Ten [[email protected]] Grad58 - music Verified 93.14 MB 3 7 12 min
2009 - Prince - LotusFlow3r [[email protected]] Grad58 - music Verified 335.82 MB 1 13 17 min
2007 - Prince - Planet Earth [[email protected]] Grad58 - music Verified 104.89 MB 3 8 17 min
2006 - Prince - Ultimate Prince [[email protected]] Grad58 - music Verified 359.82 MB 3 17 17 min
Pallbearer - Fear And Fury (EP) 2016 320ak - music Verified 45.89 MB 42 5 22 min
VA - Clubland Bounce - Megamix 1+2 (of 4) only [Club, Dance, Bounce, Peak] 2014 (MP3 320kbps) [Digital_Majik] - music Verified 364.65 MB 2 11 22 min
Swans - Soundtracks For the Blind 320kbps - music Verified 326.65 MB 32 17 22 min
Orion Child - Into The Deepest Bane Of Hope 2016 320ak - music Verified 146.32 MB 19 22 27 min
Guns N Roses - The Spaghetti Incident (Japanese Shm CD 2016)320ak - music Verified 108.66 MB 15 18 27 min
1000mods - Repeated Exposure To (2016)320ak - music Verified 121.54 MB 13 34 27 min
Korn - A Different World (feat. Corey Taylor) (Single) 2016 320ak - music Verified 7.83 MB 12 12 32 min
Talking Heads - Remain In Light 320kbps - music Verified 92.54 MB 45 17 32 min
Muddy Waters - I'm Ready (1978), [Mp3 320 Kbps] - music Verified 93.33 MB 1 0 32 min
Rihanna - Anti (Deluxe Edition) (2016) (by emi) - music Verified 72.01 MB 10 7 37 min
Saxon - Baptism Of Fire - The Collection (1991 - 2009 2-CD) 2016 320ak - music Verified 361.15 MB 25 30 37 min
Yellowcard Yellowcard 2016 CDRIP - music Verified 89.91 MB 1 0 37 min