Massage Creep - Jennifer White (XXX)(iPod,PSP,Zune)

Added February 7 2011
Categorymisc
Seeds / Peers1 / 3 Refresh Leechers
Size186.82 MB
Hash85355a84e7445fb721198c74703a93102f16c626
Files
285.43 KB Jennifer White.jpg
186.43 MB Jennifer White.m4v
Trackers
http://tracker.thepiratebay.org/announce
udp://tracker.thepiratebay.org:80/announce
udp://tracker.openbittorrent.com:80/announce
udp://tracker.publicbt.com:80/announce
http://tracker.publicbt.com/announce
http://exodus.1337x.org/announce
Description
Screenshot

http://8ba9e974.poontown.net

Video
ID                               : 1
Format                           : AVC
Format/Info                      : Advanced Video Codec
Format profile                   : [email protected]
Format settings, CABAC           : No
Format settings, ReFrames        : 2 frames
Codec ID                         : avc1
Codec ID/Info                    : Advanced Video Coding
Duration                         : 56mn 55s
Bit rate mode                    : Variable
Bit rate                         : 400 Kbps
Width                            : 480 pixels
Height                           : 272 pixels
Display aspect ratio             : 16:9
Frame rate mode                  : Variable
Frame rate                       : 23.976 fps
Minimum frame rate               : 23.974 fps
Maximum frame rate               : 23.981 fps
Color space                      : YUV
Chroma subsampling               : 4:2:0
Bit depth                        : 8 bits
Scan type                        : Progressive
Bits/(Pixel*Frame)               : 0.128
Stream size                      : 163 MiB (87%)
Writing library                  : x264 core 112


Audio
ID                               : 2
Format                           : AAC
Format/Info                      : Advanced Audio Codec
Format profile                   : LC
Codec ID                         : 40
Duration                         : 56mn 55s
Bit rate mode                    : Variable
Bit rate                         : 54.5 Kbps
Maximum bit rate                 : 64.2 Kbps
Channel(s)                       : 2 channels
Channel positions                : Front: L R
Sampling rate                    : 44.1 KHz
Compression mode                 : Lossy
Stream size                      : 22.2 MiB (12%)
Language                         : English

Screenshot

http://8ba9e974.poontown.net


Locations no locations

Last

FILE SIZE SEEDS PEERS ADDED
アナタもワタシも知らない世界 オカルト万華鏡 第01巻 [ANATA MO WATASHI MO SHIRANAI SEKAI: OCCULT MANGEKYOU VOL 01] - anime Verified 42.02 MB 31 4 11 sec
霊感お嬢★天宮視子シリーズ 神様御不在 [REIKAN OJOU AMAMIYA MIKO SERIES KAMISAMA GOFUZAI] - anime Verified 42.02 MB 25 9 5 min
Adobe CC Master Collection 2015 5 Updated Aug 2016 Incl Crack [SadeemPC] - software Verified 13.6 GB 5 44 5 min
Conclusion-HI2U - games Verified 3.61 GB 1 9 5 min
Super Cube Smash-HI2U - games Verified 978.3 MB 3 3 10 min
1997 - Soul II Soul ‎– @Remix.or.jp [[email protected]] (Grad58) - music Verified 123.96 MB 8 3 10 min
Dean Martin-Legend in Concert (2004)[DVD5 by alE13 PCM][Eng] - music Verified 2.27 GB 3 5 10 min
VA - The Best of 70's Funk (2012) [MP3~320Kbps]~[Hunter] [FRG] - music Verified 286.15 MB 1 0 15 min
WWE SmackDown Live 2016 08 23 HDTV x264-NWCHD [TJET] - series Verified 942.57 MB 677 1372 15 min
Halt.and.Catch.Fire.S03E02.720p.HDTV.x264-AVS[PRiME] - series Verified 1.05 GB 105 59 15 min
Halt.and.Catch.Fire.S03E02.720p.HDTV.x264-FLEET[PRiME] - series Verified 1.04 GB 79 52 20 min
WWE SmackDown Pre Show 2016 08 23 720p WEB h264-HEEL [TJET] - series Verified 954.57 MB 25 46 20 min
WWE SmackDown Pre Show 2016 08 23 WEB h264-HEEL [TJET] - series Verified 382.82 MB 27 20 20 min
Zoo.S02E10.HDTV.XviD-FUM[ettv] - series Verified 350.5 MB 429 331 25 min
Dead.of.Summer.S01E09.HDTV.x264-FLEET[PRiME] - series Verified 243.2 MB 361 334 25 min
Dead.of.Summer.S01E09.720p.HDTV.x264-FLEET[PRiME] - series Verified 804 MB 69 70 25 min
Zoo.S02E10.HDTV.x264-LOL[ettv] - series Verified 262.5 MB 1675 1157 30 min
Star Trek S03E05 (1968) - BDRip x264 - [=Faith=] - series Verified 452.15 MB 11 10 30 min
WWE SmackDown Live 2016 08 23 720p HDTV x264-NWCHD [TJET] - series Verified 2.71 GB 133 287 30 min
WWE Smackdown Live 2016 08 23 HDTV x264-SkY [TJET] - series Verified 932.82 MB 265 579 35 min