Massage Creep - Jennifer White (XXX)(iPod,PSP,Zune)

Download Anonymous Download Torrent (1) Download Torrent (2)
Added February 7 2011
Categorymisc
Seeds / Peers1 / 3 Refresh Leechers
Size186.82 MB
Hash85355a84e7445fb721198c74703a93102f16c626
Files
285.43 KB Jennifer White.jpg
186.43 MB Jennifer White.m4v
Trackers
http://tracker.thepiratebay.org/announce
udp://tracker.thepiratebay.org:80/announce
udp://tracker.openbittorrent.com:80/announce
udp://tracker.publicbt.com:80/announce
http://tracker.publicbt.com/announce
http://exodus.1337x.org/announce
Description
Screenshot

http://8ba9e974.poontown.net

Video
ID                               : 1
Format                           : AVC
Format/Info                      : Advanced Video Codec
Format profile                   : [email protected]
Format settings, CABAC           : No
Format settings, ReFrames        : 2 frames
Codec ID                         : avc1
Codec ID/Info                    : Advanced Video Coding
Duration                         : 56mn 55s
Bit rate mode                    : Variable
Bit rate                         : 400 Kbps
Width                            : 480 pixels
Height                           : 272 pixels
Display aspect ratio             : 16:9
Frame rate mode                  : Variable
Frame rate                       : 23.976 fps
Minimum frame rate               : 23.974 fps
Maximum frame rate               : 23.981 fps
Color space                      : YUV
Chroma subsampling               : 4:2:0
Bit depth                        : 8 bits
Scan type                        : Progressive
Bits/(Pixel*Frame)               : 0.128
Stream size                      : 163 MiB (87%)
Writing library                  : x264 core 112


Audio
ID                               : 2
Format                           : AAC
Format/Info                      : Advanced Audio Codec
Format profile                   : LC
Codec ID                         : 40
Duration                         : 56mn 55s
Bit rate mode                    : Variable
Bit rate                         : 54.5 Kbps
Maximum bit rate                 : 64.2 Kbps
Channel(s)                       : 2 channels
Channel positions                : Front: L R
Sampling rate                    : 44.1 KHz
Compression mode                 : Lossy
Stream size                      : 22.2 MiB (12%)
Language                         : English

Screenshot

http://8ba9e974.poontown.net


Locations no locations

Last

FILE SIZE SEEDS PEERS ADDED
[HorribleSubs] Yowamushi Pedal Re RIDE - 00 [720p].mkv - anime Verified 1.18 GB 350 227 41 sec
[HorribleSubs] Yowamushi Pedal Re RIDE - 00 [480p].mkv - anime Verified 549.15 MB 124 111 43 sec
Experience - games Verified 59.02 MB 0 0 10 min
Hyposphere-HI2U - games Verified 1.36 GB 0 0 10 min
[IDIF]Bakuon 1-2 - anime Verified 333.15 MB 6 1 10 min
[ReinForce] Gintama┬░ - Vol 1-10 (BDRip 1920x1080 x264 FLAC) - anime Verified 89.29 GB 8 161 10 min
[BakedFish] Ansatsu Kyoushitsu (2016) - 17 [720p][AAC].mp4 - anime Verified 418.82 MB 60 30 15 min
Collection programs PortableApps v 14 0 (04 05 2016) by adguard [Multi]-=TEAM OS=- - software Verified 3.99 GB 4 37 20 min
Skyshine's Bedlam Redux! (GOG) - games Verified 2.6 GB 0 0 25 min
Empyrion Alpha 1.4.3 crack SSE #Kortal - games Verified 896.3 MB 0 0 30 min
Pathologic Classic HD [v 1.03] (2015) MULTi4-PROPHET - games Verified 2.45 GB 0 0 30 min
Dead Or Alive 5 Last Round version 1.06 + 20 DLCs repack Mr DJ - games Verified 8.03 GB 20 44 30 min
Crusader Kings II + ALL DLCs version 2.5.2 Multi 4 repack Mr DJ - games Verified 1.25 GB 386 20 35 min
Fable III version 1.1.1.3 + DLCs repack Mr DJ - games Verified 5.31 GB 26 28 35 min
The Dandy Warhols - Welcome To The Monkey House (320 kbps) - 2003 - music Verified 116.41 MB 0 0 45 min
Nicky Byrne [Former Westlife Member] - Sunlight [2016] [320Kbps] [Pirate Shovon] - music Verified 84.91 MB 0 0 45 min
The Dandy Warhols - Welcome To The Monkey House (FLAC) - 2003 - music Verified 318.15 MB 0 0 45 min
7 Days To Die v14.6 x64 crack ALI213 #Kortal - games Verified 1.4 GB 4 2 50 min
(Trance) VA - A State Of Trance 2016 (Mixed by Armin Van Buuren) (Armada Digital (ARDI3645)) WEB-2016, MP3, 320 kbps [EDM RG] - music Verified 659.3 MB 0 0 55 min
James Blake - The Colour in Anything [2016] [320Kbps] [Pirate Shovon] - music Verified 176.32 MB 0 0 55 min