Massage Creep - Jennifer White (XXX)(iPod,PSP,Zune)

Download Torrent Download Anonymous
Added February 7 2011
Categorymisc
Seeds / Peers1 / 3 Refresh Leechers
Size186.82 MB
Hash85355a84e7445fb721198c74703a93102f16c626
Files
285.43 KB Jennifer White.jpg
186.43 MB Jennifer White.m4v
Trackers
http://tracker.thepiratebay.org/announce
udp://tracker.thepiratebay.org:80/announce
udp://tracker.openbittorrent.com:80/announce
udp://tracker.publicbt.com:80/announce
http://tracker.publicbt.com/announce
http://exodus.1337x.org/announce
Description
Screenshot

http://8ba9e974.poontown.net

Video
ID                               : 1
Format                           : AVC
Format/Info                      : Advanced Video Codec
Format profile                   : [email protected]
Format settings, CABAC           : No
Format settings, ReFrames        : 2 frames
Codec ID                         : avc1
Codec ID/Info                    : Advanced Video Coding
Duration                         : 56mn 55s
Bit rate mode                    : Variable
Bit rate                         : 400 Kbps
Width                            : 480 pixels
Height                           : 272 pixels
Display aspect ratio             : 16:9
Frame rate mode                  : Variable
Frame rate                       : 23.976 fps
Minimum frame rate               : 23.974 fps
Maximum frame rate               : 23.981 fps
Color space                      : YUV
Chroma subsampling               : 4:2:0
Bit depth                        : 8 bits
Scan type                        : Progressive
Bits/(Pixel*Frame)               : 0.128
Stream size                      : 163 MiB (87%)
Writing library                  : x264 core 112


Audio
ID                               : 2
Format                           : AAC
Format/Info                      : Advanced Audio Codec
Format profile                   : LC
Codec ID                         : 40
Duration                         : 56mn 55s
Bit rate mode                    : Variable
Bit rate                         : 54.5 Kbps
Maximum bit rate                 : 64.2 Kbps
Channel(s)                       : 2 channels
Channel positions                : Front: L R
Sampling rate                    : 44.1 KHz
Compression mode                 : Lossy
Stream size                      : 22.2 MiB (12%)
Language                         : English

Screenshot

http://8ba9e974.poontown.net


Locations no locations

Last

FILE SIZE SEEDS PEERS ADDED
The Revenant 2009 720p BluRay H264 AAC-RARBG - movies Verified 1.42 GB 10 9 10 sec
Sarah Key - Wet And Puffy [720x1280] - misc Verified 411.82 MB 7 11 17 sec
X-Art - Adria Rae (The Artiste) XXX 29.May.2016 - misc Verified 556.15 MB 101 78 19 sec
PrettyDirty - Sara Luvv, Abella Danger, Tyler Nixon (Sinning With My Sister Chapter Four) XXX 29.May.2016 - misc Verified 612.65 MB 59 52 20 sec
Lesbian Bridal Party 2015 HDTV 720p x264-SHDXXX - misc Verified 1.52 GB 1 19 5 min
[Hentai 3D] Mura (60FPS) - misc Verified 530.65 MB 49 28 5 min
EvilAngel - Reena Sky (Lexd, Scene 1) 720p NEW May 29, 2016 - misc Verified 1.1 GB 19 21 5 min
Joel Shepherd - Renegade (Spiral Wars #1) [epub&mobi] - misc Verified 1.63 MB 13 3 10 min
Let's Take Em' To Church The Relationship Chronicles Uncut by Dale Ridley.epub - misc Verified 774.4 KB 10 3 10 min
Je suis à toi (Monsters in the Dark #3.5) by Pepper Winters {Ira} [BЯ] - misc Verified 467.2 KB 11 3 10 min
Bruce Lee-The Fighter [2015] Download Telugu HDRip x264 700MB ESubs - movies Verified 703.3 MB 1 8 15 min
Jaytee by Rick Edelstein.epub - misc Verified 166.4 KB 4 4 15 min
IN LOVE WITH THE REAPER by DOTTIE ALLURE.epub - misc Verified 422.4 KB 3 2 15 min
In Love With a Brooklyn Thug 3 by Nako.epub - misc Verified 294.4 KB 4 2 15 min
Fan 2016 Hindi 720p BluRay 999 MB - iExTV - movies Verified 999.3 MB 1 4 20 min
Unconventional Oil and Gas Resources Exploitation and Development - U. Ahmed, D. N. Meehan (CRC, 2016).pdf - misc Verified 333.65 MB 1 39 20 min
Andrzej Lubowski - Świat 2040: Czy Zachód musi przegrać? [RAR->PDF] [POLISH] - misc Verified 3.38 MB 11 4 20 min
History Revealed – The Big Book of History Answers 2016 {{ERTB}} - misc Verified 37.14 MB 68 15 20 min
G. A. Bendrikow i inni - Zadania z fizyki dla kandydatów na wyższe uczelnie [DjVu] [POLISH] - misc Verified 11.76 MB 9 4 25 min
Marek Pawlikowski - Zaburzenia hormonalne [PDF] [POLISH] - misc Verified 80.95 MB 12 7 25 min