Public Invasion- Sex On Train Station (XXX)(iPod,PSP,Zune)

Added February 19 2011
Categorymisc
Seeds / Peers2 / 39 Refresh Leechers
Size126.29 MB
Hashcbb950aea24c0bc23771d0d2a7c7f1e5cc8b113b
Files
125.89 MB Publicinvasion- Sex On Train Station.m4v
301.34 KB Screen.jpg
Trackers
http://tracker.thepiratebay.org/announce
udp://tracker.thepiratebay.org:80/announce
udp://tracker.openbittorrent.com:80/announce
udp://tracker.publicbt.com:80/announce
http://tracker.publicbt.com/announce
http://exodus.1337x.org/announce
Description
Screenshots:

http://54099306.linkbabes.com

Video
ID                               : 1
Format                           : AVC
Format/Info                      : Advanced Video Codec
Format profile                   : [email protected]
Format settings, CABAC           : No
Format settings, ReFrames        : 2 frames
Codec ID                         : avc1
Codec ID/Info                    : Advanced Video Coding
Duration                         : 42mn 20s
Bit rate mode                    : Variable
Bit rate                         : 350 Kbps
Width                            : 364 pixels
Height                           : 272 pixels
Display aspect ratio             : 4:3
Frame rate mode                  : Variable
Frame rate                       : 23.976 fps
Minimum frame rate               : 23.974 fps
Maximum frame rate               : 23.981 fps
Color space                      : YUV
Chroma subsampling               : 4:2:0
Bit depth                        : 8 bits
Scan type                        : Progressive
Bits/(Pixel*Frame)               : 0.147
Stream size                      : 106 MiB (84%)
Writing library                  : x264 core 112

Audio
ID                               : 2
Format                           : AAC
Format/Info                      : Advanced Audio Codec
Format profile                   : LC
Codec ID                         : 40
Duration                         : 42mn 20s
Bit rate mode                    : Variable
Bit rate                         : 62.3 Kbps
Maximum bit rate                 : 126 Kbps
Channel(s)                       : 2 channels
Channel positions                : Front: L R
Sampling rate                    : 44.1 KHz
Compression mode                 : Lossy
Stream size                      : 18.9 MiB (15%)
Language                         : English

More Torrents...

http://thepiratebay.org/user/punter21

Locations no locations

Last

FILE SIZE SEEDS PEERS ADDED
[PuyaSubs!] Tales of Zestiria The X - 13 [1080p][C3FEEA2D].mkv - anime Verified 842.07 MB 22 6 1 min
[PuyaSubs!] Tales of Zestiria The X - 13 [720p][7252F401].mkv - anime Verified 559.07 MB 35 15 1 min
[Ohys-Raws] Tales of Zestiria - The Cross (MX 1280x720 x264 AAC) - anime Verified 5.44 GB 125 419 7 min
[Ohys-Raws] Tales of Zestiria - The Cross - 13 END (MX 1280x720 x264 AAC).mp4 - anime Verified 376.65 MB 714 419 7 min
[HorribleSubs] Tales of Zestiria the X - 12 [1080p].mkv - anime Verified 842.15 MB 1298 331 11 min
[HorribleSubs] Tales of Zestiria the X - 12 [720p].mkv - anime Verified 559.15 MB 1854 613 17 min
OCEANS オーシャンズ 2016年11号 - anime Verified 34.83 MB 27 9 17 min
ビッグコミック 2016年10月10日号 [Big Comic 2016-10-10] - anime Verified 85.04 MB 38 11 22 min
週刊漫画ゴラク 2016年10月07日号 [Manga Goraku 2016-10-07] - anime Verified 62.83 MB 29 5 27 min
赤ちゃんのホスト 第08巻 [Aka-chan no Host vol 08] - anime Verified 135.57 MB 22 8 27 min
[HorribleSubs] Tales of Zestiria the X - 12 [480p].mkv - anime Verified 336.07 MB 613 263 27 min
[Ohys-Raws] Macross Delta (MX 1280x720 x264 AAC) - anime Verified 10.92 GB 153 434 32 min
[Ohys-Raws] Macross Delta - 26 END (MX 1280x720 x264 AAC).mp4 - anime Verified 674.3 MB 1247 562 32 min
[BakedFish] Tales of Zestiria the X - 12 [720p][AAC].mp4 - anime Verified 383.82 MB 0 0 37 min
Pokemon Go v0 39 1 (Mods) APK [SadeemPC] - games Verified 387.15 MB 5 34 37 min
The.Block.S12E20.Webrip.x264-MFO.mp4 - series Verified 558.3 MB 60 38 52 min
Joanna Lumleys Japan. complete season 1 MP4s + subs BigJ0554 - series Verified 1.5 GB 21 36 52 min
UFC Fight Night 95 Cyborg vs Lansberg 720p HDTV x264-Ebi [TJET] - series Verified 6.18 GB 109 366 52 min
The Sunday NRL Footy Show - 25-9-2016.mp4 - series Verified 689.3 MB 3 1 57 min
Longmire.S05E06.720p.WEBRip.X264-DEFLATE[ettv] - series Verified 2.45 GB 39 55 57 min