Public Invasion- Sex On Train Station (XXX)(iPod,PSP,Zune)

Added February 19 2011
Categorymisc
Seeds / Peers2 / 39 Refresh Leechers
Size126.29 MB
Hashcbb950aea24c0bc23771d0d2a7c7f1e5cc8b113b
Files
125.89 MB Publicinvasion- Sex On Train Station.m4v
301.34 KB Screen.jpg
Trackers
http://tracker.thepiratebay.org/announce
udp://tracker.thepiratebay.org:80/announce
udp://tracker.openbittorrent.com:80/announce
udp://tracker.publicbt.com:80/announce
http://tracker.publicbt.com/announce
http://exodus.1337x.org/announce
Description
Screenshots:

http://54099306.linkbabes.com

Video
ID                               : 1
Format                           : AVC
Format/Info                      : Advanced Video Codec
Format profile                   : [email protected]
Format settings, CABAC           : No
Format settings, ReFrames        : 2 frames
Codec ID                         : avc1
Codec ID/Info                    : Advanced Video Coding
Duration                         : 42mn 20s
Bit rate mode                    : Variable
Bit rate                         : 350 Kbps
Width                            : 364 pixels
Height                           : 272 pixels
Display aspect ratio             : 4:3
Frame rate mode                  : Variable
Frame rate                       : 23.976 fps
Minimum frame rate               : 23.974 fps
Maximum frame rate               : 23.981 fps
Color space                      : YUV
Chroma subsampling               : 4:2:0
Bit depth                        : 8 bits
Scan type                        : Progressive
Bits/(Pixel*Frame)               : 0.147
Stream size                      : 106 MiB (84%)
Writing library                  : x264 core 112

Audio
ID                               : 2
Format                           : AAC
Format/Info                      : Advanced Audio Codec
Format profile                   : LC
Codec ID                         : 40
Duration                         : 42mn 20s
Bit rate mode                    : Variable
Bit rate                         : 62.3 Kbps
Maximum bit rate                 : 126 Kbps
Channel(s)                       : 2 channels
Channel positions                : Front: L R
Sampling rate                    : 44.1 KHz
Compression mode                 : Lossy
Stream size                      : 18.9 MiB (15%)
Language                         : English

More Torrents...

http://thepiratebay.org/user/punter21

Locations no locations

Last

FILE SIZE SEEDS PEERS ADDED
TeensLikeItBig Harley Jade Switching Teams Part Three 720p HEVC x265 - misc Verified 199.32 MB 1 0 1 min
I Love It Double 13 540p - misc Verified 2.47 GB 0 1 1 min
Disciplined Teens 2 - misc Verified 2.1 GB 0 0 1 min
GFRevenge 16 08 22 Entering Kymberlee HR MP4-KTR - misc Verified 332.82 MB 0 0 6 min
TheLifeErotic.16.08.26.Natasha.Starr.Pin.Up.Tease.2.XXX.1080p.MP4.KTR - misc Verified 314.82 MB 4 4 6 min
[DreamTranny] Agatha Alencar - Gets Filled Up (26.08.2016) rq (1080p).mp4 - misc Verified 1.61 GB 0 12 6 min
[DreamTranny] Agatha Alencar - Gets Filled Up (26.08.2016) rq (720p).mp4 - misc Verified 800.3 MB 2 9 11 min
Tonight 39 s Girlfriend - Rachel Roxxx 082616 - misc Verified 820.82 MB 0 0 11 min
SexuallyBroken 16 08 24 Mona Wales 720p MP4-KTR - misc Verified 475.57 MB 0 0 11 min
SpyTug 16 08 26 Girl 66 1080p MP4-KTR - misc Verified 456.07 MB 0 0 16 min
DareDorm 16 08 19 Bubble Party HR MP4-KTR - misc Verified 519.57 MB 0 0 16 min
SexuallyBroken 16 08 26 Madelyn Monroe 720p MP4-KTR - misc Verified 526.32 MB 0 0 16 min
CumLouder - Introducing Katrina Moreno - misc Verified 562.57 MB 0 0 21 min
SpyTug 16 08 19 Girl 53 1080p MP4-KTR - misc Verified 466.57 MB 0 0 21 min
Kirsty Travis Louisa Moon And Mia Makepeace Mummys Boy Cock (26.08.2016) 400p - misc Verified 80.25 MB 9 8 21 min
GA - Corum - 4 - The Bull and the Spear - (vonG) - misc Verified 537.15 MB 1 10 26 min
Boobs Of These Girls Cant Hold by Their Dress Pictures set 132 - misc Verified 6.27 MB 0 29 31 min
Indian Actress Mallika Sherawat Sexy pictures ooze hotness( 70 Hot Photos ) - misc Verified 6.2 MB 0 58 31 min
100 Indian actress Ayesha Takia Hottest Pictures Pack set 3 - misc Verified 11.02 MB 0 56 31 min
100 Most Amazing Collection of Computer Desktop Wallpapers - Set 772 [ECLiPSE] - misc Verified 45.96 MB 2 95 36 min