Public Invasion- Sex On Train Station (XXX)(iPod,PSP,Zune)

Download Anonymous Download Torrent (1) Download Torrent (2)
Added February 19 2011
Categorymisc
Seeds / Peers2 / 39 Refresh Leechers
Size126.29 MB
Hashcbb950aea24c0bc23771d0d2a7c7f1e5cc8b113b
Files
125.89 MB Publicinvasion- Sex On Train Station.m4v
301.34 KB Screen.jpg
Trackers
http://tracker.thepiratebay.org/announce
udp://tracker.thepiratebay.org:80/announce
udp://tracker.openbittorrent.com:80/announce
udp://tracker.publicbt.com:80/announce
http://tracker.publicbt.com/announce
http://exodus.1337x.org/announce
Description
Screenshots:

http://54099306.linkbabes.com

Video
ID                               : 1
Format                           : AVC
Format/Info                      : Advanced Video Codec
Format profile                   : [email protected]
Format settings, CABAC           : No
Format settings, ReFrames        : 2 frames
Codec ID                         : avc1
Codec ID/Info                    : Advanced Video Coding
Duration                         : 42mn 20s
Bit rate mode                    : Variable
Bit rate                         : 350 Kbps
Width                            : 364 pixels
Height                           : 272 pixels
Display aspect ratio             : 4:3
Frame rate mode                  : Variable
Frame rate                       : 23.976 fps
Minimum frame rate               : 23.974 fps
Maximum frame rate               : 23.981 fps
Color space                      : YUV
Chroma subsampling               : 4:2:0
Bit depth                        : 8 bits
Scan type                        : Progressive
Bits/(Pixel*Frame)               : 0.147
Stream size                      : 106 MiB (84%)
Writing library                  : x264 core 112

Audio
ID                               : 2
Format                           : AAC
Format/Info                      : Advanced Audio Codec
Format profile                   : LC
Codec ID                         : 40
Duration                         : 42mn 20s
Bit rate mode                    : Variable
Bit rate                         : 62.3 Kbps
Maximum bit rate                 : 126 Kbps
Channel(s)                       : 2 channels
Channel positions                : Front: L R
Sampling rate                    : 44.1 KHz
Compression mode                 : Lossy
Stream size                      : 18.9 MiB (15%)
Language                         : English

More Torrents...

http://thepiratebay.org/user/punter21

Locations no locations

Related

FILE SIZE SEEDS PEERS ADDED
[Public Invasion] - The Best Fuck in Tokyo - misc Verified 230.41 MB 3 18 4 months
Public Invasion - Henessy - Fucking A Russian Hottie In The Middle Of A Soccer Field - misc Verified 232.57 MB 23 50 1 year
Public Invasion 16 XXX DVDRip x264-CiCXXX - misc Verified 2.54 GB 2 61 1 year
Public Invasion Diana King Bend Me Over In The Fields XXX cPORN wmv - misc Verified 270.25 MB 1 0 1 year
Public Invasion - Robert Fucked his future Landlord - misc Verified 569.32 MB 3 11 2 years
Public Invasion -bleachers.wmv - Verified 376.65 MB 2 50 4 years
Public Invasion - The Horny Girl On The Metro.wmv - misc 161.07 MB 64 104 4 years
Public Invasion - Sex at the Park.wmv - misc 347.82 MB 0 0 4 years
Public Invasion - Lenka (XXX)(iPod,PSP,Zune) - misc 125.54 MB 1 0 4 years
Public Invasion Roadside Doggy - misc 508.07 MB 5 26 5 years