Twisted desire 1996 (TV) [english][DVDRip]

Added April 18 2011
Categorymovies
Seeds / Peers1 / 1 Refresh Leechers
Size813.65 MB
Hash3904d08f4c9cca8a60b3afb36df7319fb1afc4ac
Files
813.46 MB Twisted.desire.1996.DivX.DVDRip [Zk2007].avi
Trackers
http://tracker.thepiratebay.org/announce
udp://tracker.thepiratebay.org:80/announce
udp://tracker.openbittorrent.com:80/announce
Description
Twisted Desire
A teenage temptress uses her sexuality to persuade a gullible ex-convict that they could live happily ever after - but only if he kills her parents first. Interesting drama based on a true story, giving Sabrina the Teenage Witch star Melissa Joan Hart a chance to prove her mettle as an actress and break away from her cutesy small-screen image. Daniel Baldwin, Isabella Hofmann, Jeremy Jordan and Meadow Sisto co-star.

TV Movie, made for NBC in 1996, thriller. Rated TV PG-15 (UK)

As the movie had never been released on DVD yet, so this WORKPRINT copy is in perfect DVD quality for you. Enjoy ;-)


Screenshot: http://img687.imageshack.us/i/f75285b9e192.png/

Format                           : AVI
Format/Info                      : Audio Video Interleave
File size                        : 813 MiB
Duration                         : 1h 25mn
Overall bit rate                 : 1 338 Kbps
Writing application              : VirtualDubMod 1.5.10.3 | www.virtualdub-fr.org || (build 2550/release)
Writing library                  : VirtualDubMod build 2550/release

Video
ID                               : 0
Format                           : MPEG-4 Visual
Format profile                   : [email protected]
Format settings, BVOP            : No
Format settings, QPel            : No
Format settings, GMC             : No warppoints
Format settings, Matrix          : Default (H.263)
Codec ID                         : DIVX
Codec ID/Info                    : Project Mayo
Codec ID/Hint                    : DivX 4
Duration                         : 1h 25mn
Bit rate                         : 1 200 Kbps
Width                            : 704 pixels
Height                           : 576 pixels
Display aspect ratio             : 4:3
Frame rate                       : 25.000 fps
Standard                         : PAL
Color space                      : YUV
Chroma subsampling               : 4:2:0
Bit depth                        : 8 bits
Scan type                        : Progressive
Bits/(Pixel*Frame)               : 0.118
Stream size                      : 730 MiB (90%)
Writing library                  : avc2.0.11.1110

Audio
ID                               : 1
Format                           : MPEG Audio
Format version                   : Version 1
Format profile                   : Layer 3
Mode                             : Joint stereo
Mode extension                   : MS Stereo
Codec ID                         : 55
Codec ID/Hint                    : MP3
Duration                         : 1h 25mn
Bit rate mode                    : Constant
Bit rate                         : 128 Kbps
Channel(s)                       : 2 channels
Sampling rate                    : 48.0 KHz
Video delay                      : 1s 816ms
Stream size                      : 77.8 MiB (10%)
Alignment                        : Split accross interleaves
Interleave, duration             : 40 ms (1.00 video frame)
Interleave, preload duration     : 500 ms
Locations no locations

Last

FILE SIZE SEEDS PEERS ADDED
Teenage Mutant Ninja Turtles: Out of the Shadows (2016) WEB-DL - x264 - [SyED] - movies Verified 749.3 MB 2 17 3 min
The.Bloodstained.Butterfly.1971.INTERNAL.BDRip.x264-GHOULS[PRiME] - movies Verified 627.2 MB 2 12 3 min
Neighbors.2014.720p.BluRay.DTS.x264-HDS[PRiME] - movies Verified 4.36 GB 2 3 3 min
The Neon Demon (2016) 720p WEB-DL - 1GB - ShAaNiG - movies Verified 1.05 GB 12 159 8 min
Maximum.Ride.2016.720p.WEB-DL.DD5.1.x264-BDP[PRiME] - movies Verified 1.64 GB 2 95 8 min
Teenage.Mutant.Ninja.Turtles.Out.of.the.Shadows.2016.720p.WEB-DL.x264 - LOKI - M2Tv - movies Verified 970.3 MB 4 37 8 min
UI Design Mobile App UI in Adobe Photoshop - misc Verified 237.32 MB 19 15 13 min
Tutor for Microsoft Word for Mac (2016) - misc Verified 687.32 MB 5 7 18 min
Learn Database Design with MySQL - misc Verified 2.79 GB 22 56 18 min
Lets Draw Sketch Realistic Eyes with Pencils - misc Verified 622.07 MB 25 12 18 min
Learn To Design Professional Graphics Without Photoshop in 5 Minutes Without Any Investment - misc Verified 46.06 MB 18 8 23 min
Joomla 3 - The Basics - misc Verified 494.82 MB 13 13 23 min
JavaScript Object Oriented JavaScript (2016) - misc Verified 1011.82 MB 17 30 23 min
iOS Debugging in Xcode (2016) - misc Verified 670.82 MB 6 7 28 min
Cisco CCNA Network Fundamentals Final Chapters - misc Verified 946.57 MB 21 21 28 min
Body Lighting Steps Tutorial Pack - misc Verified 184.32 MB 15 11 28 min
Monique Woods (30.08.2016) 400p - misc Verified 161.25 MB 29 42 33 min
Harmony Reigns (30.08.2016) 400p - misc Verified 138.25 MB 59 43 33 min
[TheDickSuckers]Amia Moretti - Im 18 and I Like to Suck Dick! [.mp4] - misc Verified 486.82 MB 19 19 33 min
Manuels POV 2 - All Anal (Hard X) XXX 2016 WEB-DL Split Scenes - misc Verified 2.09 GB 1 67 38 min