Twisted desire 1996 (TV) [english][DVDRip]

Download Anonymous Download Torrent (1) Download Torrent (2)
Added April 18 2011
Categorymovies
Seeds / Peers1 / 1 Refresh Leechers
Size813.65 MB
Hash3904d08f4c9cca8a60b3afb36df7319fb1afc4ac
Files
813.46 MB Twisted.desire.1996.DivX.DVDRip [Zk2007].avi
Trackers
http://tracker.thepiratebay.org/announce
udp://tracker.thepiratebay.org:80/announce
udp://tracker.openbittorrent.com:80/announce
Description
Twisted Desire
A teenage temptress uses her sexuality to persuade a gullible ex-convict that they could live happily ever after - but only if he kills her parents first. Interesting drama based on a true story, giving Sabrina the Teenage Witch star Melissa Joan Hart a chance to prove her mettle as an actress and break away from her cutesy small-screen image. Daniel Baldwin, Isabella Hofmann, Jeremy Jordan and Meadow Sisto co-star.

TV Movie, made for NBC in 1996, thriller. Rated TV PG-15 (UK)

As the movie had never been released on DVD yet, so this WORKPRINT copy is in perfect DVD quality for you. Enjoy ;-)


Screenshot: http://img687.imageshack.us/i/f75285b9e192.png/

Format                           : AVI
Format/Info                      : Audio Video Interleave
File size                        : 813 MiB
Duration                         : 1h 25mn
Overall bit rate                 : 1 338 Kbps
Writing application              : VirtualDubMod 1.5.10.3 | www.virtualdub-fr.org || (build 2550/release)
Writing library                  : VirtualDubMod build 2550/release

Video
ID                               : 0
Format                           : MPEG-4 Visual
Format profile                   : [email protected]
Format settings, BVOP            : No
Format settings, QPel            : No
Format settings, GMC             : No warppoints
Format settings, Matrix          : Default (H.263)
Codec ID                         : DIVX
Codec ID/Info                    : Project Mayo
Codec ID/Hint                    : DivX 4
Duration                         : 1h 25mn
Bit rate                         : 1 200 Kbps
Width                            : 704 pixels
Height                           : 576 pixels
Display aspect ratio             : 4:3
Frame rate                       : 25.000 fps
Standard                         : PAL
Color space                      : YUV
Chroma subsampling               : 4:2:0
Bit depth                        : 8 bits
Scan type                        : Progressive
Bits/(Pixel*Frame)               : 0.118
Stream size                      : 730 MiB (90%)
Writing library                  : avc2.0.11.1110

Audio
ID                               : 1
Format                           : MPEG Audio
Format version                   : Version 1
Format profile                   : Layer 3
Mode                             : Joint stereo
Mode extension                   : MS Stereo
Codec ID                         : 55
Codec ID/Hint                    : MP3
Duration                         : 1h 25mn
Bit rate mode                    : Constant
Bit rate                         : 128 Kbps
Channel(s)                       : 2 channels
Sampling rate                    : 48.0 KHz
Video delay                      : 1s 816ms
Stream size                      : 77.8 MiB (10%)
Alignment                        : Split accross interleaves
Interleave, duration             : 40 ms (1.00 video frame)
Interleave, preload duration     : 500 ms
Locations no locations

Last

FILE SIZE SEEDS PEERS ADDED
25 Sexy Neha Sharma Hot Wallpapers Set 9 - misc Verified 7.83 MB 4 4 30 min
25 Sexy Rakul Preet Best Wallpapers Set 8 - misc Verified 9.58 MB 5 4 30 min
25 Sexy Urvashi Rautela Hot Wallpapers Set 8 - misc Verified 8.77 MB 5 4 35 min
HVD Fonts | Niveau Grotesk & Serif Font Families 36×OTF €445 - misc Verified 1.91 MB 14 4 35 min
HVD Fonts | Livory Font Family 4×OTF €115 - misc Verified 710.4 KB 13 0 40 min
HVD Fonts | Pluto Superfamily (Normal, Condensed, Sans & Italics) 64×OTF €890 - misc Verified 3.1 MB 14 1 40 min
HVD Fonts | Grandma Font Family 2×OTF €25 - misc Verified 198.4 KB 11 1 45 min
HVD Fonts | Goodlife: Handlettering Collection 7×OTF €85 - misc Verified 1.85 MB 18 0 45 min
MightyDeals | Huge Exclusive Mega Bundle: 2100+ Design Elements - misc Verified 9.73 GB 7 9 50 min
Older Lady Gets Picked Up In The Parking Lot Video - misc Verified 103.41 MB 1 0 55 min
25 Sexy Sonam Kapoor Super Hot Wallpaper Set 5 - misc Verified 8.33 MB 18 5 1 hour
25 Sexy Sherlyn Chopra Hot Wallpapers Set 9 - misc Verified 8.7 MB 12 8 1 hour
Older Man Gets To Make Love To A Younger Woman Video - misc Verified 117.29 MB 3 1 1 hour
25 Sexy Salma Hayek Wallpaper Set 19 - misc Verified 9.27 MB 21 4 1 hour
Udemy - The React Redux and the Advanced - misc Verified 3.51 GB 2 0 1 hour
Living Well - Leading In Adversity - misc Verified 241.57 MB 7 1 1 hour
paki Sex Video At Home - misc Verified 128.04 MB 2 2 1 hour
PARADISE FILMS Cute Asian Teen - misc Verified 131.32 MB 1 3 1 hour
PlayboyPlus 16 04 24 Rebekah Cotton Hidden Treasure XXX 1080p MP4-KTR - misc Verified 341.07 MB 4 4 1 hour
Howard Stern Show APR 26 2016 Tue (Best Of) - misc Verified 183.32 MB 67 15 1 hour