Twisted desire 1996 (TV) [english][DVDRip]

Added April 18 2011
Categorymovies
Seeds / Peers1 / 1 Refresh Leechers
Size813.65 MB
Hash3904d08f4c9cca8a60b3afb36df7319fb1afc4ac
Files
813.46 MB Twisted.desire.1996.DivX.DVDRip [Zk2007].avi
Trackers
http://tracker.thepiratebay.org/announce
udp://tracker.thepiratebay.org:80/announce
udp://tracker.openbittorrent.com:80/announce
Description
Twisted Desire
A teenage temptress uses her sexuality to persuade a gullible ex-convict that they could live happily ever after - but only if he kills her parents first. Interesting drama based on a true story, giving Sabrina the Teenage Witch star Melissa Joan Hart a chance to prove her mettle as an actress and break away from her cutesy small-screen image. Daniel Baldwin, Isabella Hofmann, Jeremy Jordan and Meadow Sisto co-star.

TV Movie, made for NBC in 1996, thriller. Rated TV PG-15 (UK)

As the movie had never been released on DVD yet, so this WORKPRINT copy is in perfect DVD quality for you. Enjoy ;-)


Screenshot: http://img687.imageshack.us/i/f75285b9e192.png/

Format                           : AVI
Format/Info                      : Audio Video Interleave
File size                        : 813 MiB
Duration                         : 1h 25mn
Overall bit rate                 : 1 338 Kbps
Writing application              : VirtualDubMod 1.5.10.3 | www.virtualdub-fr.org || (build 2550/release)
Writing library                  : VirtualDubMod build 2550/release

Video
ID                               : 0
Format                           : MPEG-4 Visual
Format profile                   : [email protected]
Format settings, BVOP            : No
Format settings, QPel            : No
Format settings, GMC             : No warppoints
Format settings, Matrix          : Default (H.263)
Codec ID                         : DIVX
Codec ID/Info                    : Project Mayo
Codec ID/Hint                    : DivX 4
Duration                         : 1h 25mn
Bit rate                         : 1 200 Kbps
Width                            : 704 pixels
Height                           : 576 pixels
Display aspect ratio             : 4:3
Frame rate                       : 25.000 fps
Standard                         : PAL
Color space                      : YUV
Chroma subsampling               : 4:2:0
Bit depth                        : 8 bits
Scan type                        : Progressive
Bits/(Pixel*Frame)               : 0.118
Stream size                      : 730 MiB (90%)
Writing library                  : avc2.0.11.1110

Audio
ID                               : 1
Format                           : MPEG Audio
Format version                   : Version 1
Format profile                   : Layer 3
Mode                             : Joint stereo
Mode extension                   : MS Stereo
Codec ID                         : 55
Codec ID/Hint                    : MP3
Duration                         : 1h 25mn
Bit rate mode                    : Constant
Bit rate                         : 128 Kbps
Channel(s)                       : 2 channels
Sampling rate                    : 48.0 KHz
Video delay                      : 1s 816ms
Stream size                      : 77.8 MiB (10%)
Alignment                        : Split accross interleaves
Interleave, duration             : 40 ms (1.00 video frame)
Interleave, preload duration     : 500 ms
Locations no locations

Last

FILE SIZE SEEDS PEERS ADDED
Tranny Surprise - 2016-08-31 - Yasmin Rios 1080p mp4 - misc Verified 1.89 GB 2 16 3 min
[MyFriendsHotMom] Olivia Fox | (21743 /NEW** 26.09.2016) - misc Verified 205.57 MB 37 44 3 min
Tsuchiya Asami - Loincloth Girl Tsurupeta Rorimmusume Asami-chan [KTDS-790] (Ke- . Toraibu) [cen] - misc Verified 1.12 GB 14 8 3 min
Haniu Miko - Concentrated Juice Cum Facial Shower Home Sweet Home Miko Of Semen Idle Cute Girl Of Love [HODV-21215](Kirin / H.m.p) [cen] - misc Verified 1.22 GB 9 12 8 min
TakeVan 16 09 26 Amy Soaking Wet Nympho READ NFO 1080p MP4-KTR - misc Verified 1.69 GB 1 3 8 min
JUX-978 Being Fucked Is Constrained In The Neighborhood Of Mase Brat U... [JAV] - misc Verified 3.42 GB 49 172 8 min
[MyDadsHotGirlfriend] Dani Daniels (21737 /NEW** 26.09.2016) - misc Verified 192.82 MB 18 26 13 min
TakeVan.16.09.26.Amy.Soaking.Wet.Nympho.XXX.READ.NFO.1080p.MP4-KTR[N1C] - misc Verified 1.69 GB 7 17 13 min
A Taste Of Brazil [Reality Kings]**Split Scenes** - misc Verified 2.39 GB 2 39 13 min
Tranny Surprise - 2016-08-17 - Sheylla Wandergirlt 1080p mp4 - misc Verified 2.03 GB 1 14 18 min
We Live Together: Licking Labia - Dani Daniels and Valentina Nappi - misc Verified 2.56 GB 1 11 18 min
ReadyOrNotHereICum 16 09 26 Medusa Beautiful And Dangerous 1080p MP4-KTR - misc Verified 1.92 GB 1 12 18 min
Sophia Knight - Thrilling Throne - misc Verified 614.3 MB 1 13 23 min
Sweetie With NOT Her Dad MP4 - misc Verified 383.15 MB 1 24 23 min
[PixAndVideo - 21Sextury] Alexis Brill (Taking Care Of The Wife - 22.09.2016) - misc Verified 347.15 MB 9 14 23 min
[FakeTaxi - FakeHub] Christina Shine (Hungarian Beauty with Perfect Body - 2016-09-22) - misc Verified 331.65 MB 11 24 28 min
[SwallowSalon] Cali Carter (23.09.2016) - misc Verified 217.57 MB 12 16 28 min
[RedLightSexTrips]Arthur - Arthur from England [.mp4] - misc Verified 584.57 MB 28 33 28 min
[21FootArt - 21Naturals] Suzy Rainbow (Suzys Hot Heels - 23.09.2016) - misc Verified 461.15 MB 15 17 33 min
[JacquieEtMichelTV]Charlotte - Charlotte se deculotte ![.mp4] - misc Verified 546.82 MB 49 63 33 min