Twisted desire 1996 (TV) [english][DVDRip]

Added April 18 2011
Categorymovies
Seeds / Peers1 / 1 Refresh Leechers
Size813.65 MB
Hash3904d08f4c9cca8a60b3afb36df7319fb1afc4ac
Files
813.46 MB Twisted.desire.1996.DivX.DVDRip [Zk2007].avi
Trackers
http://tracker.thepiratebay.org/announce
udp://tracker.thepiratebay.org:80/announce
udp://tracker.openbittorrent.com:80/announce
Description
Twisted Desire
A teenage temptress uses her sexuality to persuade a gullible ex-convict that they could live happily ever after - but only if he kills her parents first. Interesting drama based on a true story, giving Sabrina the Teenage Witch star Melissa Joan Hart a chance to prove her mettle as an actress and break away from her cutesy small-screen image. Daniel Baldwin, Isabella Hofmann, Jeremy Jordan and Meadow Sisto co-star.

TV Movie, made for NBC in 1996, thriller. Rated TV PG-15 (UK)

As the movie had never been released on DVD yet, so this WORKPRINT copy is in perfect DVD quality for you. Enjoy ;-)


Screenshot: http://img687.imageshack.us/i/f75285b9e192.png/

Format                           : AVI
Format/Info                      : Audio Video Interleave
File size                        : 813 MiB
Duration                         : 1h 25mn
Overall bit rate                 : 1 338 Kbps
Writing application              : VirtualDubMod 1.5.10.3 | www.virtualdub-fr.org || (build 2550/release)
Writing library                  : VirtualDubMod build 2550/release

Video
ID                               : 0
Format                           : MPEG-4 Visual
Format profile                   : [email protected]
Format settings, BVOP            : No
Format settings, QPel            : No
Format settings, GMC             : No warppoints
Format settings, Matrix          : Default (H.263)
Codec ID                         : DIVX
Codec ID/Info                    : Project Mayo
Codec ID/Hint                    : DivX 4
Duration                         : 1h 25mn
Bit rate                         : 1 200 Kbps
Width                            : 704 pixels
Height                           : 576 pixels
Display aspect ratio             : 4:3
Frame rate                       : 25.000 fps
Standard                         : PAL
Color space                      : YUV
Chroma subsampling               : 4:2:0
Bit depth                        : 8 bits
Scan type                        : Progressive
Bits/(Pixel*Frame)               : 0.118
Stream size                      : 730 MiB (90%)
Writing library                  : avc2.0.11.1110

Audio
ID                               : 1
Format                           : MPEG Audio
Format version                   : Version 1
Format profile                   : Layer 3
Mode                             : Joint stereo
Mode extension                   : MS Stereo
Codec ID                         : 55
Codec ID/Hint                    : MP3
Duration                         : 1h 25mn
Bit rate mode                    : Constant
Bit rate                         : 128 Kbps
Channel(s)                       : 2 channels
Sampling rate                    : 48.0 KHz
Video delay                      : 1s 816ms
Stream size                      : 77.8 MiB (10%)
Alignment                        : Split accross interleaves
Interleave, duration             : 40 ms (1.00 video frame)
Interleave, preload duration     : 500 ms
Locations no locations

Last

FILE SIZE SEEDS PEERS ADDED
Vixen - Nina North (Messing Around With My Sisters Boyfriend) 480p - misc Verified 621.3 MB 18 17 1 min
Vixen - Veronica Rodriguez (Latin Exchange Student Seduced by Father) 480p - misc Verified 739.3 MB 33 28 1 min
Perfectly.Sexy.XXX.720p.WEBRip.MP4-VSEX[N1C] - misc Verified 2.8 GB 5 8 1 min
Ukrainian redhead hottie Arian Joy fucks her boyfriend and the delivery guy Porndoe - misc Verified 272.15 MB 9 39 6 min
Perfectly.Sexy.XXX.720p.WEBRip.MP4-VSEX[PRiME] - misc Verified 2.8 GB 6 16 6 min
Brown Bunnies - Simone Styles (Stepsister Swallowing Cock / BangBros) 1080p NEW July 30, 2016 [eos] - misc Verified 2.99 GB 12 36 6 min
Brown Bunnies - Simone Styles (Stepsister Swallowing Cock / BangBros) 720p NEW July 30, 2016 [eos] - misc Verified 1.51 GB 35 46 11 min
Spermastudio Paris Pink gangbang - misc Verified 636.15 MB 12 12 11 min
Le Menteur Baiseur[FFQ]2016/WEBRip/SD - misc Verified 1.35 GB 2 44 11 min
[FuckedInTraffic/PornDoePremium]George Uhl, Gina Davis - Horny bitch Gina Davis cheating on her boyfriend with horny driver - misc Verified 251.82 MB 12 14 16 min
Mens Journal - September 2016 True PDF - zeke23 - misc Verified 21.45 MB 17 3 16 min
Slow Cooking Wonders Box Set (6 in 1) Paleo, Gluten-Free, Low Carb. Atkins, Bone Broth and Beef Recipes for Your Magic Slow Cooker (Healthy Slow Cooking) - {CHB Books} - misc Verified 2.36 MB 14 8 16 min
Diabetic Living - Fall 2016 True PDF - zeke23 - misc Verified 34.21 MB 18 6 21 min
The Woodworker & Woodturner - September 2016 True PDF - zeke23 - misc Verified 20.08 MB 15 5 21 min
Adventures of Huckleberry Finn – {ronin99} - misc Verified 1.25 MB 5 2 21 min
PC Advisor - September 2016 pdf - zeke23 - misc Verified 59.08 MB 23 5 26 min
India Today - 8 August 2016 True PDF - zeke23 - misc Verified 50.39 MB 11 5 26 min
Photoshop Creative - September 2016 - pdf - zeke23 - misc Verified 65.16 MB 28 6 26 min
モブサイコ100 第12巻 [Mob Psycho 100 vol 12] - anime Verified 48.52 MB 0 279 31 min
[Ohys-Raws] Detective Conan - 827 (NTV 1280x720 x264 AAC).mp4 - anime Verified 284.15 MB 97 95 41 min