Twisted desire 1996 (TV) [english][DVDRip]

Download Anonymous Download Torrent (1) Download Torrent (2)
Added April 18 2011
Categorymovies
Seeds / Peers1 / 1 Refresh Leechers
Size813.65 MB
Hash3904d08f4c9cca8a60b3afb36df7319fb1afc4ac
Files
813.46 MB Twisted.desire.1996.DivX.DVDRip [Zk2007].avi
Trackers
http://tracker.thepiratebay.org/announce
udp://tracker.thepiratebay.org:80/announce
udp://tracker.openbittorrent.com:80/announce
Description
Twisted Desire
A teenage temptress uses her sexuality to persuade a gullible ex-convict that they could live happily ever after - but only if he kills her parents first. Interesting drama based on a true story, giving Sabrina the Teenage Witch star Melissa Joan Hart a chance to prove her mettle as an actress and break away from her cutesy small-screen image. Daniel Baldwin, Isabella Hofmann, Jeremy Jordan and Meadow Sisto co-star.

TV Movie, made for NBC in 1996, thriller. Rated TV PG-15 (UK)

As the movie had never been released on DVD yet, so this WORKPRINT copy is in perfect DVD quality for you. Enjoy ;-)


Screenshot: http://img687.imageshack.us/i/f75285b9e192.png/

Format                           : AVI
Format/Info                      : Audio Video Interleave
File size                        : 813 MiB
Duration                         : 1h 25mn
Overall bit rate                 : 1 338 Kbps
Writing application              : VirtualDubMod 1.5.10.3 | www.virtualdub-fr.org || (build 2550/release)
Writing library                  : VirtualDubMod build 2550/release

Video
ID                               : 0
Format                           : MPEG-4 Visual
Format profile                   : Simple@L1
Format settings, BVOP            : No
Format settings, QPel            : No
Format settings, GMC             : No warppoints
Format settings, Matrix          : Default (H.263)
Codec ID                         : DIVX
Codec ID/Info                    : Project Mayo
Codec ID/Hint                    : DivX 4
Duration                         : 1h 25mn
Bit rate                         : 1 200 Kbps
Width                            : 704 pixels
Height                           : 576 pixels
Display aspect ratio             : 4:3
Frame rate                       : 25.000 fps
Standard                         : PAL
Color space                      : YUV
Chroma subsampling               : 4:2:0
Bit depth                        : 8 bits
Scan type                        : Progressive
Bits/(Pixel*Frame)               : 0.118
Stream size                      : 730 MiB (90%)
Writing library                  : avc2.0.11.1110

Audio
ID                               : 1
Format                           : MPEG Audio
Format version                   : Version 1
Format profile                   : Layer 3
Mode                             : Joint stereo
Mode extension                   : MS Stereo
Codec ID                         : 55
Codec ID/Hint                    : MP3
Duration                         : 1h 25mn
Bit rate mode                    : Constant
Bit rate                         : 128 Kbps
Channel(s)                       : 2 channels
Sampling rate                    : 48.0 KHz
Video delay                      : 1s 816ms
Stream size                      : 77.8 MiB (10%)
Alignment                        : Split accross interleaves
Interleave, duration             : 40 ms (1.00 video frame)
Interleave, preload duration     : 500 ms
Locations no locations

Last

FILE SIZE SEEDS PEERS ADDED
Jack Irish 2016 02 11 360p LDTV ABC AU WEBRIP s03e01 [MPup] - series Verified 254.91 MB 1 0 21 sec
Fit To Fat To Fit S01E04 Alex and Geoff WS DSR x264-NY2 -={SPARROW}=- - series Verified 340.07 MB 3 18 5 min
Gotham S02e01 [Mux - H264 - Ita Aac] DLMux by UBi - series Verified 366.66 MB 11 46 5 min
MISSION : IMPOSSIBLE -- Target Earth ( 2nd Season ) - series Verified 159.07 MB 1 0 10 min
Team Ninja Warrior S01E04 Qualifying Week 4 WS DSR x264-NY2-={SPARROW}=- - series Verified 673.65 MB 2 14 10 min
X-Files S10e04 [Mux - H264 - Ita Aac] DLMux by UBi - series Verified 388.16 MB 25 41 15 min
The Nightly Show 2016 02 10 New Hampshire Primary and Marley Dias WEBRip x264 AAC mp4 - series Verified 150.07 MB 2 1 20 min
The Royal Tenenbaums 2001 1080p BluRay H264 AAC-RARBG - movies Verified 2.1 GB 8 3 35 min
Stag Hunt 2015 BDRip x264-RUSTED - movies Verified 954.57 MB 3 10 40 min
Southbound (2015) 720p WEB-DL 650MB - MkvCage - movies Verified 652.3 MB 1 0 45 min
Secret in Their Eyes 2015 BRRip x264 AAC-SSN - movies Verified 1.3 GB 0 1 45 min
Prem Ratan Dhan Payo 2015 Hindi 720p BluRay 1.2 GB iExTV.mp4 - movies Verified 1.2 GB 1 0 50 min
Prem Ratan Dhan Payo (2015) 720p Bluray x264 AAC MultiAudio [DDR] - movies Verified 4.43 GB 1 1 55 min
The Cyberbully 2015 DVDRip x264-TASTETV mkv - movies Verified 282.15 MB 3 16 55 min
Prem Ratan Dhan Payo (2015) 1080p BluRay Hindi.Tamil.Telugu.5.1 Ch.x264 SUJAIDR - movies Verified 3.82 GB 2 1 1 hour
Professor Green Hidden and Homeless 720p x264 HDTV [MVGroup] - movies Verified 1.07 GB 27 5 1 hour
Entertainment 2015 LIMITED BDRip x264-GECKOS mkv - movies Verified 367.15 MB 3 7 1 hour
20 Awesome Nature Ultra HD 4K Wallpapers 3840x2160 Px [Set 14] - misc Verified 76.21 MB 28 12 1 hour
120 Amazing Cars Full HD Wallpapers 1920x1080 Px [Set 53] - misc Verified 124.02 MB 12 7 1 hour
Seashell Wreath - Janlynn [Cross Stitch Chart].pdf - misc Verified 10.21 MB 5 1 1 hour