Twisted desire 1996 (TV) [english][DVDRip]

Download Torrent Download Anonymous
Added April 18 2011
Categorymovies
Seeds / Peers1 / 1 Refresh Leechers
Size813.65 MB
Hash3904d08f4c9cca8a60b3afb36df7319fb1afc4ac
Files
813.46 MB Twisted.desire.1996.DivX.DVDRip [Zk2007].avi
Trackers
http://tracker.thepiratebay.org/announce
udp://tracker.thepiratebay.org:80/announce
udp://tracker.openbittorrent.com:80/announce
Description
Twisted Desire
A teenage temptress uses her sexuality to persuade a gullible ex-convict that they could live happily ever after - but only if he kills her parents first. Interesting drama based on a true story, giving Sabrina the Teenage Witch star Melissa Joan Hart a chance to prove her mettle as an actress and break away from her cutesy small-screen image. Daniel Baldwin, Isabella Hofmann, Jeremy Jordan and Meadow Sisto co-star.

TV Movie, made for NBC in 1996, thriller. Rated TV PG-15 (UK)

As the movie had never been released on DVD yet, so this WORKPRINT copy is in perfect DVD quality for you. Enjoy ;-)


Screenshot: http://img687.imageshack.us/i/f75285b9e192.png/

Format                           : AVI
Format/Info                      : Audio Video Interleave
File size                        : 813 MiB
Duration                         : 1h 25mn
Overall bit rate                 : 1 338 Kbps
Writing application              : VirtualDubMod 1.5.10.3 | www.virtualdub-fr.org || (build 2550/release)
Writing library                  : VirtualDubMod build 2550/release

Video
ID                               : 0
Format                           : MPEG-4 Visual
Format profile                   : [email protected]
Format settings, BVOP            : No
Format settings, QPel            : No
Format settings, GMC             : No warppoints
Format settings, Matrix          : Default (H.263)
Codec ID                         : DIVX
Codec ID/Info                    : Project Mayo
Codec ID/Hint                    : DivX 4
Duration                         : 1h 25mn
Bit rate                         : 1 200 Kbps
Width                            : 704 pixels
Height                           : 576 pixels
Display aspect ratio             : 4:3
Frame rate                       : 25.000 fps
Standard                         : PAL
Color space                      : YUV
Chroma subsampling               : 4:2:0
Bit depth                        : 8 bits
Scan type                        : Progressive
Bits/(Pixel*Frame)               : 0.118
Stream size                      : 730 MiB (90%)
Writing library                  : avc2.0.11.1110

Audio
ID                               : 1
Format                           : MPEG Audio
Format version                   : Version 1
Format profile                   : Layer 3
Mode                             : Joint stereo
Mode extension                   : MS Stereo
Codec ID                         : 55
Codec ID/Hint                    : MP3
Duration                         : 1h 25mn
Bit rate mode                    : Constant
Bit rate                         : 128 Kbps
Channel(s)                       : 2 channels
Sampling rate                    : 48.0 KHz
Video delay                      : 1s 816ms
Stream size                      : 77.8 MiB (10%)
Alignment                        : Split accross interleaves
Interleave, duration             : 40 ms (1.00 video frame)
Interleave, preload duration     : 500 ms
Locations no locations

Last

FILE SIZE SEEDS PEERS ADDED
Portal Knights v0.4.0 Cracked-3DM - games Verified 1.57 GB 5 2 10 sec
Mothers.Day.2016.HDCAM.x264.AAC-Exclusive - movies Verified 1.61 GB 25 100 18 sec
Hello, My Name Is Doris (2015) 720p BluRay - 750MB - ShAaNiG - movies Verified 751.3 MB 24 27 20 sec
Alice Through the Looking Glass 2016 Unmarked 720P TC x264 Hive-CM8 - movies Verified 3.43 GB 12 65 22 sec
Tumbleweed Express-PLAZA - games Verified 943.3 MB 17 17 5 min
Team.America.World.Police.2004.720p.BluRay.x264-NeZu - movies Verified 864.3 MB 19 12 5 min
Dead Island Definitive Edition MULTi8-PROPHET - games Verified 6.17 GB 53 111 10 min
The Witcher 3: (III) Wild Hunt Blood and Wine DLC (Only) ^^nosTEAM^^ - games Verified 12.7 GB 25 231 10 min
Half Life Collection - CorePack.iso - games Verified 4.3 GB 0 5 15 min
X-Men Origins Wolverine - CorePack.iso - games Verified 4.21 GB 0 11 15 min
Mickey Blue Eyes (Comedy 1999) Hugh Grant 720p - movies Verified 951.3 MB 1 2 15 min
Software Inc Alpha 8.10.29 - games Verified 27.86 MB 4 2 20 min
Money Monster 2016 HDTS x264 AAC 752Mib By TeriKasam mkv - movies Verified 753.3 MB 1 2 20 min
The Walking Dead No Man's Land v1.9.0.86 mod + data [apkpita] - games Verified 235.29 MB 2 4 25 min
Romancing SaGa 2 v1.00 mod + data [apkpita] - games Verified 294.66 MB 2 3 25 min
Hollywood U with Bethany Mota v2.9.2 mod [apkpita] - games Verified 74.82 MB 1 1 30 min
Pocket Shrek v2.04 mod + data [apkpita] - games Verified 131.83 MB 1 1 30 min
Wanda Nevada 1979 720p BluRay H264 AAC-RARBG - movies Verified 1.3 GB 5 6 35 min
Madhouse 1990 720p BluRay H264 AAC-RARBG - movies Verified 1.1 GB 12 3 35 min
Queen - The Best OF (2016) MP3 - music Verified 268.65 MB 35 30 40 min